<?xml version="1.0" standalone="no"?>
<!DOCTYPE svg PUBLIC "-//W3C//DTD SVG 1.1//EN" "http://www.w3.org/Graphics/SVG/1.1/DTD/svg11.dtd" >
<svg xmlns="http://www.w3.org/2000/svg" xmlns:xlink="http://www.w3.org/1999/xlink" version="1.1">
<metadata>
Created by FontForge 20170731 at Thu Jan 19 23:44:33 2023
 By Aleksey,,,
Copyright (c) 2016 by Antonio Mejia Lechuga. All rights reserved.
</metadata>
<defs>
<font id="GabrielaStencil-Black" horiz-adv-x="0" >
  <font-face 
    font-family="Gabriela Stencil Black"
    font-weight="900"
    font-stretch="normal"
    units-per-em="2048"
    panose-1="0 0 10 0 0 0 0 0 0 0"
    ascent="1638"
    descent="-410"
    x-height="1024"
    cap-height="1393"
    bbox="-1559 -635 3043 1985"
    underline-thickness="102"
    underline-position="-307"
    unicode-range="U+0020-FB02"
  />
<missing-glyph horiz-adv-x="1026" 
d="M102 0v1393h822v-1393h-822zM203 1321l311 -569l309 569h-620zM184 150l299 546l-299 547v-1093zM545 696l297 -546v1093zM203 72h620l-309 569z" />
    <glyph glyph-name="fi" unicode="fi" horiz-adv-x="1425" 
d="M442 1206q0 -101 71 -165t187 -70l-8 -31h-153v-823q0 -105 153 -105v-12h-645v12q84 0 119 30t35 75v823h-133l22 31h111v92q0 103 45 187.5t117 136.5t152.5 82t160.5 36v-12q-38 -6 -77.5 -28t-75 -57t-58.5 -88t-23 -114zM934 1319q0 74 -53 120.5t-123 53.5v12
q223 0 355 -63t132 -176q0 -68 -50 -115t-144 -47q-63 0 -119.5 23t-83.5 73q37 0 61.5 34.5t24.5 84.5zM1235 117q0 -45 35 -75t119 -30v-12h-646v12q84 0 119 30t35 75v714q0 58 -24.5 83.5t-86.5 25.5l9 31q266 0 440 73v-927z" />
    <glyph glyph-name="fl" unicode="fl" horiz-adv-x="1425" 
d="M739 940h-200v-823q0 -46 34.5 -76.5t118.5 -30.5v-10h-645v10q84 0 119 31t35 76v823h-133l22 31h111v92q0 105 31.5 186t88 132.5t125 81.5t150.5 42v-12q-78 -21 -127 -82.5t-49 -148.5q0 -58 18.5 -108t57.5 -92t107 -66.5t159 -24.5zM1235 117q0 -45 35 -75t119 -30
v-12h-646v10q84 0 119 31t35 76v1081q0 124 -62.5 205t-156.5 90v12q240 -13 360 -80q113 28 197 80v-1388z" />
    <glyph glyph-name=".notdef" horiz-adv-x="1026" 
d="M102 0v1393h822v-1393h-822zM203 1321l311 -569l309 569h-620zM184 150l299 546l-299 547v-1093zM545 696l297 -546v1093zM203 72h620l-309 569z" />
    <glyph glyph-name=".null" 
 />
    <glyph glyph-name="nonmarkingreturn" horiz-adv-x="682" 
 />
    <glyph glyph-name="space" unicode=" " horiz-adv-x="520" 
 />
    <glyph glyph-name="exclam" unicode="!" horiz-adv-x="688" 
d="M334 369q0 82 -23.5 170.5t-57.5 164.5t-68 149t-57.5 147t-23.5 135q0 118 62 198t178 80t178 -80t62 -198q0 -61 -23.5 -135t-57.5 -147t-68 -149t-57.5 -164.5t-23.5 -170.5h-20zM344 -139q-98 0 -158.5 51.5t-60.5 136.5q0 84 61 135.5t158 51.5t158 -51.5t61 -135.5
q0 -85 -60.5 -136.5t-158.5 -51.5z" />
    <glyph glyph-name="quotedbl" unicode="&#x22;" horiz-adv-x="845" 
d="M190 881q-79 367 -79 604q49 28 114 28q66 0 115 -28q0 -232 -80 -604h-70zM586 881q-80 372 -80 604q49 28 115 28q65 0 114 -28q0 -232 -80 -604h-69z" />
    <glyph glyph-name="numbersign" unicode="#" horiz-adv-x="1347" 
d="M1278 895h-371l-69 -291h362v-51h-375l-135 -553h-59l135 553h-307l-135 -553h-60l135 553h-329v51h342l69 291h-334v51h347l108 447h60l-109 -447h307l109 447h59l-108 -447h358v-51zM778 604l70 291h-307l-70 -291h307z" />
    <glyph glyph-name="dollar" unicode="$" horiz-adv-x="1312" 
d="M1141 956q-50 163 -171.5 285.5t-271.5 159.5v194h41v-184q199 -15 328 -106l74 108h16v-457h-16zM1212 399q0 -186 -124.5 -292.5t-348.5 -124.5v-185h-41v195q37 7 67 15.5t60.5 25t50.5 38t33 55t13 75.5q0 57 -27 108t-72 90.5t-104 77t-124 72t-129.5 69.5
t-123.5 75.5t-104 85.5t-72 104t-27 125q0 179 130 285t341 120v-12q-77 -13 -128.5 -61t-51.5 -128q0 -57 27 -108t72 -91.5t103.5 -78t123.5 -72.5t130 -70.5t123.5 -76.5t103.5 -86.5t72 -104.5t27 -125zM145 479q108 -368 465 -487v-12q-246 6 -397 100l-68 -100h-16
v499h16z" />
    <glyph glyph-name="percent" unicode="%" horiz-adv-x="1533" 
d="M242 -61l999 1515h57l-999 -1515h-57zM352 700q-125 0 -203.5 92.5t-78.5 264.5t78.5 264t203.5 92t203 -92t78 -264t-78 -264.5t-203 -92.5zM352 715q38 0 61 24t38.5 101.5t15.5 216.5t-15.5 216.5t-38.5 101.5t-61 24q-39 0 -62 -24t-38.5 -101.5t-15.5 -216.5
t15.5 -216.5t38.5 -101.5t62 -24zM1184 -20q-125 0 -204 92t-79 264t79 264t204 92t202.5 -92t77.5 -264t-77.5 -264t-202.5 -92zM1184 -6q28 0 47 13.5t35 49t24 105t8 174.5t-8 174.5t-24 105t-35 49t-47 13.5q-39 0 -62.5 -24t-39 -101.5t-15.5 -216.5q0 -105 8 -174.5
t24.5 -105t36 -49t48.5 -13.5z" />
    <glyph glyph-name="ampersand" unicode="&#x26;" horiz-adv-x="1622" 
d="M1286 -20q-93 0 -196.5 44.5t-198.5 119.5t-187 170t-166.5 199.5t-132 205t-89 189.5t-31.5 149q0 78 23.5 138t62 98t96.5 64t116.5 38t131.5 18v-12q-103 -10 -103 -246q0 -89 46.5 -206t120.5 -231t167.5 -226.5t185.5 -197.5t177 -137.5t139 -52.5q48 0 75 14t48 46
h12q-29 -98 -93.5 -141t-203.5 -43zM834 791l-5 6q99 116 99 348q0 245 -131 256v12q397 -36 397 -307q0 -119 -102 -206t-258 -109zM1202 287l-4 4q56 53 76 103t20 108q0 54 -40.5 88.5t-106.5 34.5q0 62 49 112.5t121 50.5q75 0 124.5 -46.5t49.5 -123.5
q0 -102 -82.5 -192.5t-206.5 -138.5zM457 -20q-172 0 -281.5 82.5t-109.5 234.5q0 75 27.5 137.5t74 104t102 67t117.5 35.5l4 -6q-59 -59 -59 -189q0 -156 100 -260t250 -104q96 0 158 27l6 -7q-131 -122 -389 -122z" />
    <glyph glyph-name="quotesingle" unicode="'" horiz-adv-x="450" 
d="M260 881h-70q-79 367 -79 604q49 28 114 28q66 0 115 -28q0 -232 -80 -604z" />
    <glyph glyph-name="parenleft" unicode="(" horiz-adv-x="745" 
d="M739 -514q-309 81 -478 346t-169 657q0 395 169 663.5t478 352.5v-12q-113 -43 -190.5 -185t-113.5 -349t-36 -470q0 -261 36 -466t113.5 -344.5t190.5 -180.5v-12z" />
    <glyph glyph-name="parenright" unicode=")" horiz-adv-x="745" 
d="M6 -514v12q113 41 190.5 180.5t113.5 344.5t36 466q0 263 -36 470t-113.5 349t-190.5 185v12q309 -84 478 -352.5t169 -663.5q0 -392 -169 -657t-478 -346z" />
    <glyph glyph-name="asterisk" unicode="*" horiz-adv-x="1210" 
d="M596 1145q-3 37 -19 73t-36.5 63.5t-41 53.5t-34.5 53.5t-14 53.5q0 72 43.5 118t113.5 46t114 -46t44 -118q0 -31 -22.5 -67t-50 -65.5t-51.5 -74.5t-26 -90h-20zM537 1081q-47 12 -98.5 4t-87 -23t-78 -23.5t-70.5 1.5q-70 25 -98.5 78t-6.5 121q20 63 76 91.5t125 8.5
q25 -8 47 -30.5t41 -50.5t39.5 -57t50 -56.5t64.5 -42.5zM678 1081l-8 21q43 16 79.5 51.5t57 68.5t49.5 64t59 41q67 23 123.5 -3t79.5 -91q21 -67 -8 -122.5t-100 -78.5q-29 -10 -70 -1t-78.5 25.5t-87 25.5t-96.5 -1zM285 643q-56 41 -65 102.5t32 118.5q19 26 58 43.5
t78 26t85 31t76 55.5l20 -12q-25 -39 -33 -88.5t-5 -88.5t-1.5 -80.5t-23.5 -66.5q-42 -58 -104 -69t-117 28zM915 639q-54 -42 -116.5 -31.5t-104.5 70.5q-19 26 -22.5 68.5t0.5 82t-3 89.5t-32 88l18 14q37 -44 98.5 -68t116 -42.5t76.5 -49.5q42 -59 33.5 -120
t-64.5 -101z" />
    <glyph glyph-name="plus" unicode="+" horiz-adv-x="1007" 
d="M930 618v-51h-398v-401h-55v401h-399v51h399v400h55v-400h398z" />
    <glyph glyph-name="comma" unicode="," horiz-adv-x="643" 
d="M330 377q86 0 144 -57.5t58 -159.5q0 -112 -111 -237t-292 -199l-8 20q60 46 101.5 113t41.5 131q0 79 -48 120.5t-122 43.5q15 108 77 166.5t159 58.5z" />
    <glyph glyph-name="hyphen" unicode="-" horiz-adv-x="1294" 
d="M137 567v51h1020v-51h-1020z" />
    <glyph glyph-name="period" unicode="." horiz-adv-x="653" 
d="M326 -20q-96 0 -158 55t-62 145q0 88 62 142.5t158 54.5q98 0 159.5 -54t61.5 -143q0 -90 -61.5 -145t-159.5 -55z" />
    <glyph glyph-name="slash" unicode="/" horiz-adv-x="937" 
d="M51 -61l778 1515h58l-778 -1515h-58z" />
    <glyph glyph-name="zero" unicode="0" horiz-adv-x="1351" 
d="M637 -20q-69 0 -139 23.5t-141 79t-125.5 136.5t-88.5 207.5t-34 280.5q0 129 23.5 237.5t64.5 183.5t93 132t112.5 89.5t118.5 48t116 15.5v-12q-44 -6 -76.5 -40.5t-59.5 -110t-41 -212t-14 -331.5q0 -687 191 -715v-12zM715 -20v12q190 27 190 715q0 195 -14 331.5
t-40.5 212t-59 110t-76.5 40.5v12q58 0 116 -15.5t118.5 -48t112.5 -89.5t93 -132t64.5 -183.5t23.5 -237.5q0 -154 -34 -280.5t-88.5 -207.5t-125.5 -136.5t-141 -79t-139 -23.5z" />
    <glyph glyph-name="one" unicode="1" horiz-adv-x="825" 
d="M102 0v12q84 0 119 30t35 75v973q0 73 -47 100t-146 16v17q127 20 282.5 74t248.5 116v-1296q0 -45 35 -75t119 -30v-12h-646z" />
    <glyph glyph-name="two" unicode="2" horiz-adv-x="1202" 
d="M297 881q-89 0 -146 55.5t-57 161.5q0 123 110 217t265 98v-12q-73 -16 -108 -70.5t-35 -132.5q0 -71 48 -116.5t115 -45.5q-11 -77 -65 -116t-127 -39zM313 401q396 407 396 760q0 209 -158 240v12q241 -5 377.5 -97.5t136.5 -266.5q0 -80 -38.5 -154t-96 -128.5
t-139 -110t-154 -93.5t-155 -84t-128.5 -78h-41zM803 -20q-58 0 -228 53t-251 53q-85 0 -130.5 -20t-72.5 -66h-12q6 170 58 252t167 82q96 0 268 -17.5t225 -17.5q50 0 81 2t64.5 9t53.5 21t36 38t23 59h13q0 -115 -12.5 -193t-44.5 -138t-90.5 -88.5t-147.5 -28.5z" />
    <glyph glyph-name="three" unicode="3" horiz-adv-x="1187" 
d="M309 958q-85 0 -145 53.5t-60 151.5q0 100 95.5 169t257.5 81v-12q-57 -14 -94 -59t-37 -103q0 -59 50 -93t113 -34q0 -72 -49 -113t-131 -41zM596 727q67 -9 130.5 -26.5t126 -48t109.5 -71t76 -97.5t29 -124q0 -125 -71 -212.5t-187.5 -127.5t-267.5 -40v12
q170 55 170 352q0 144 -76 250t-221 127v12q61 5 111.5 29t84.5 60t57 83t33.5 97t10.5 104q0 112 -45.5 196.5t-124.5 98.5v12q77 0 148.5 -10t141.5 -34.5t121.5 -62.5t83 -98.5t31.5 -136.5q0 -69 -29 -125t-75.5 -93t-110 -64.5t-126 -41.5t-130.5 -20zM489 281
q-63 0 -113 -34t-50 -93q0 -58 36.5 -102.5t94.5 -59.5v-12q-152 11 -252.5 82.5t-100.5 175.5q0 96 61.5 146t145.5 50q75 0 126.5 -43t51.5 -110z" />
    <glyph glyph-name="four" unicode="4" horiz-adv-x="1140" 
d="M61 432q101 69 177.5 158.5t115.5 173.5t57.5 151.5t18.5 116.5q0 105 -57.5 164t-159.5 59q-26 0 -53 -6q41 71 128 117.5t189 46.5q123 0 206 -80t83 -211q0 -101 -58.5 -210t-152.5 -199.5t-210 -164.5t-234 -116h-50zM1106 342h-236v-195q0 -69 32 -102t114 -33v-12
h-608v12q145 0 145 99v231h-492v31h492v153q201 164 307 344h10v-497h236v-31z" />
    <glyph glyph-name="five" unicode="5" horiz-adv-x="1193" 
d="M193 887l4 479q94 47 229 47q74 0 191.5 -30.5t187.5 -30.5q83 0 130.5 24t78.5 88q45 -74 45 -170q0 -115 -78.5 -180t-210.5 -65q-81 0 -192.5 17t-163.5 17q-102 0 -155 -46t-54 -150h-12zM530 -20v12q78 14 133 76t81 152t26 200q0 72 -21.5 139.5t-62.5 122.5
t-107 88t-147 33q-118 0 -239 -33v14q182 54 382 54q228 0 373.5 -122t145.5 -313q0 -140 -72 -236.5t-197 -141.5t-295 -45zM457 -20q-161 10 -264 103.5t-103 225.5q0 100 66 168t153 68q88 0 144.5 -48t56.5 -132q-86 0 -141.5 -43t-55.5 -129q0 -83 40.5 -137.5
t103.5 -63.5v-12z" />
    <glyph glyph-name="six" unicode="6" horiz-adv-x="1241" 
d="M594 -20q-238 10 -366 168t-128 434q0 135 46 259t125.5 219.5t183 170.5t221 121t237.5 61v-12q-107 -21 -190.5 -77t-136 -132.5t-86.5 -178t-47.5 -206.5t-14.5 -225q-2 -286 32.5 -427t123.5 -163v-12zM676 -20v12q87 28 134.5 145t47.5 266q0 69 -10.5 133
t-31.5 120t-59 90t-89 34q-61 0 -131 -28l2 12q85 55 235 55q195 0 301.5 -111t106.5 -290q0 -191 -128.5 -308.5t-377.5 -129.5z" />
    <glyph glyph-name="seven" unicode="7" horiz-adv-x="1118" 
d="M80 864q0 76 2 132.5t7.5 112.5t15 95.5t25 75.5t37 59.5t51 41t67.5 25t86 7.5q77 0 251 -48t240 -48q90 0 140 18.5t77 57.5h13q0 -66 -4 -115.5t-17.5 -99.5t-36 -82t-62 -52t-93.5 -20q-95 0 -252 34t-228 34q-47 0 -81.5 -3.5t-75.5 -17t-69 -37t-50.5 -67
t-30.5 -103.5h-12zM225 0q0 119 48 245t123 231t171.5 203t188 169t178.5 121h20q-161 -192 -245 -409t-84 -443q0 -55 34.5 -80t106.5 -25v-12h-541z" />
    <glyph glyph-name="eight" unicode="8" horiz-adv-x="1286" 
d="M696 -20v12q92 11 146.5 63.5t54.5 151.5q0 62 -41 121t-106 108.5t-143.5 100t-157.5 105t-144 114t-106 137.5t-41 164q0 77 28 138t71.5 98.5t104 64t118 38.5t120.5 17v-12q-66 -17 -111 -60.5t-45 -115.5q0 -59 41 -114t106 -102t144 -95.5t158 -103.5t144 -115.5
t106 -142t41 -173.5q0 -85 -28.5 -153t-74.5 -111.5t-110.5 -73.5t-132 -44t-142.5 -17zM788 948l-12 8q94 84 94 244q0 180 -186 201v12q118 0 216.5 -26.5t163 -84.5t64.5 -139q0 -111 -94.5 -163t-245.5 -52zM610 -20q-86 0 -158.5 9t-139 32t-113 58t-74 90.5
t-27.5 127.5q0 83 57.5 146.5t137.5 94t166 33.5l14 -6q-60 -46 -85.5 -107.5t-25.5 -164.5q0 -124 66 -202t182 -99v-12z" />
    <glyph glyph-name="nine" unicode="9" horiz-adv-x="1241" 
d="M467 573q-195 0 -301.5 111.5t-106.5 290.5q0 191 128.5 308.5t377.5 129.5v-12q-86 -28 -134 -145.5t-48 -266.5q0 -69 10.5 -133t31.5 -120t59 -90t89 -34q59 0 132 29l-3 -12q-87 -56 -235 -56zM328 -20v12q107 21 190.5 77t136 132.5t86.5 178t47.5 206.5t14.5 225
q2 286 -32.5 427t-123.5 163v12q238 -10 366 -168t128 -434q0 -135 -46 -259t-125.5 -219.5t-183 -170.5t-221 -121t-237.5 -61z" />
    <glyph glyph-name="colon" unicode=":" horiz-adv-x="698" 
d="M348 635q-96 0 -157.5 55.5t-61.5 145.5q0 88 61.5 142t157.5 54q98 0 159.5 -54t61.5 -142q0 -90 -62 -145.5t-159 -55.5zM348 -20q-96 0 -157.5 55t-61.5 145q0 88 61.5 142.5t157.5 54.5q98 0 159.5 -54t61.5 -143q0 -90 -61.5 -145t-159.5 -55z" />
    <glyph glyph-name="semicolon" unicode=";" horiz-adv-x="694" 
d="M344 635q-96 0 -157.5 55.5t-61.5 145.5q0 88 61.5 142t157.5 54q98 0 159.5 -54t61.5 -142q0 -90 -62 -145.5t-159 -55.5zM160 -276l-8 20q60 46 101.5 113t41.5 131q0 79 -48 120.5t-122 43.5q15 108 76.5 166.5t158.5 58.5q86 0 144.5 -57.5t58.5 -159.5
q0 -112 -111 -237t-292 -199z" />
    <glyph glyph-name="less" unicode="&#x3c;" horiz-adv-x="894" 
d="M768 999v-57l-641 -358l641 -359v-57l-705 397v37z" />
    <glyph glyph-name="equal" unicode="=" horiz-adv-x="1167" 
d="M143 690v51h881v-51h-881zM143 410v51h881v-51h-881z" />
    <glyph glyph-name="greater" unicode="&#x3e;" horiz-adv-x="894" 
d="M127 999l704 -397v-37l-704 -397v57l641 359l-641 358v57z" />
    <glyph glyph-name="question" unicode="?" horiz-adv-x="1163" 
d="M276 944q-87 0 -150 49.5t-63 143.5q0 65 41 118.5t106.5 86t139 51t146.5 20.5v-12q-70 -21 -108 -77t-38 -122q0 -129 115 -176q-27 -38 -76.5 -60t-112.5 -22zM721 397q-147 0 -224 64.5t-77 163.5q0 53 24 102.5t60 86t78.5 79t78.5 81t60 94t24 116.5
q0 85 -34.5 137.5t-112.5 79.5v12q110 -7 197.5 -29t156 -61.5t105.5 -102t37 -145.5q0 -65 -33 -124.5t-82.5 -101.5t-107 -84.5t-107 -76.5t-82.5 -76t-33 -84q0 -40 16.5 -67.5t57.5 -50.5zM584 -139q-98 0 -158.5 51.5t-60.5 136.5q0 84 61 135.5t158 51.5t158 -51.5
t61 -135.5q0 -85 -60.5 -136.5t-158.5 -51.5z" />
    <glyph glyph-name="at" unicode="@" horiz-adv-x="1804" 
d="M944 -66q-394 0 -619 187.5t-225 517.5q0 174 60.5 318.5t170 244.5t267 155.5t346.5 55.5q364 0 576.5 -173t212.5 -472q0 -216 -117.5 -350.5t-308.5 -134.5q-279 0 -279 219q0 23 43 506q152 0 287 36q-43 -550 -43 -577q0 -68 18 -105.5t64 -37.5t95 31t92 85.5
t71 141t28 186.5q0 281 -196 440.5t-543 159.5q-365 0 -579.5 -197t-214.5 -532q0 -312 209 -485.5t585 -173.5q130 0 268 35.5t220 82.5l20 -37q-89 -49 -232 -88t-276 -39zM735 283q-37 0 -74.5 10.5t-75 35.5t-67 61t-47.5 92t-18 124q0 99 30 182t80 136.5t114.5 83.5
t133.5 30q61 0 111.5 -22t72.5 -58l-2 -28q-17 27 -45 43t-57 16q-64 0 -97.5 -114t-33.5 -269q0 -135 15.5 -199.5t64.5 -64.5q66 0 118 109l-2 -29q-50 -139 -221 -139z" />
    <glyph glyph-name="A" unicode="A" horiz-adv-x="1486" 
d="M1360 119q28 -60 68.5 -83.5t115.5 -23.5v-12h-739v12q77 0 120 46.5t7 121.5l-387 815l188 418h21zM686 410l-379 -13q-28 -92 -28 -161q0 -54 24.5 -98t63 -70.5t82.5 -41t86 -14.5v-12h-590v8q129 0 237 228l281 589l6 -18q-109 -236 -152 -373l363 -12z" />
    <glyph glyph-name="B" unicode="B" horiz-adv-x="1462" 
d="M88 1380v13h502v-1393h-502v12q84 0 119 30t35 75v1159q0 104 -154 104zM842 705q117 -5 210 -26t164 -60t109.5 -101.5t38.5 -144.5q0 -199 -161.5 -286t-510.5 -87v12q49 0 96 14.5t88 44.5t72.5 72.5t49.5 101.5t18 128q0 84 -27 148t-73 101.5t-103 56.5t-121 19v13
q273 0 273 350q0 168 -65.5 243.5t-207.5 75.5v13q322 0 471.5 -75t149.5 -257q0 -153 -125.5 -247t-345.5 -109z" />
    <glyph glyph-name="C" unicode="C" horiz-adv-x="1439" 
d="M942 61q128 0 228 53t163 130l8 -17q-77 -123 -207 -185t-286 -62q-85 0 -172 20t-171 58.5t-157.5 100t-129.5 138t-88 179t-32 218.5q0 149 45 272t116.5 203t165.5 136t187.5 80.5t186.5 27.5v-12q-299 -65 -299 -692q0 -127 16.5 -229t47 -171.5t70.5 -119t91 -77
t103.5 -39.5t113.5 -12zM1333 1413h17v-498h-17q-118 400 -432 486v12q244 -11 371 -94z" />
    <glyph glyph-name="D" unicode="D" horiz-adv-x="1603" 
d="M590 0h-502v12q86 0 120 27t34 78v1157q0 51 -34 78.5t-120 27.5v13h502v-1393zM692 1393q389 0 599 -177t210 -514q0 -343 -210 -522.5t-599 -179.5v12q96 6 169.5 43.5t131.5 114.5t88.5 211t30.5 321q0 150 -21 265.5t-57 190.5t-90 124.5t-115 71.5t-137 26v13z" />
    <glyph glyph-name="E" unicode="E" horiz-adv-x="1378" 
d="M590 0h-502v12q154 0 154 105v1157q0 106 -154 106v13h502v-1393zM692 1393h541v-379h-16q-66 194 -179 272.5t-346 93.5v13zM805 705l-113 10v12l113 10q92 8 156 48.5t114 127.5h17v-381h-17q-50 86 -113.5 125.5t-156.5 47.5zM692 0v12q235 15 360 95t208 272h16v-379
h-584z" />
    <glyph glyph-name="F" unicode="F" horiz-adv-x="1320" 
d="M88 0v12q154 0 154 105v1159q0 104 -154 104v13h502v-1276q0 -105 153 -105v-12h-655zM1239 983q-69 214 -188.5 298t-358.5 99v13h563v-410h-16zM1075 512q-50 86 -113.5 125t-156.5 47l-113 10v13l113 10q92 8 156 48.5t114 127.5h17v-381h-17z" />
    <glyph glyph-name="G" unicode="G" horiz-adv-x="1583" 
d="M98 696q0 133 41.5 250t109 198.5t153.5 142t174.5 91t173.5 35.5v-12q-58 -7 -101.5 -42.5t-78 -112t-52.5 -211t-18 -326.5q0 -193 18 -331.5t52.5 -219.5t78 -120t101.5 -46v-12q-91 5 -180.5 34t-175.5 87t-151 139t-105 199t-40 257zM1333 915q-42 184 -172 317
t-311 169v12q282 -13 420 -96l63 96h17v-498h-17zM918 588h626v-13q-151 0 -151 -120v-475h-17l-73 122q-152 -110 -451 -122v12q219 16 219 250v213q0 65 -33.5 92.5t-119.5 27.5v13z" />
    <glyph glyph-name="H" unicode="H" horiz-adv-x="1714" 
d="M590 117q0 -105 151 -105v-12h-653v12q154 0 154 105v1159q0 104 -154 104v13h653v-13q-151 0 -151 -104v-561l432 -10v-13l-432 -10v-565zM1626 1380q-153 0 -153 -104v-1159q0 -105 153 -105v-12h-655v12q153 0 153 105v1159q0 106 -153 104v13h655v-13z" />
    <glyph glyph-name="I" unicode="I" horiz-adv-x="831" 
d="M88 0v12q154 0 154 105v1159q0 104 -154 104v13h655v-13q-153 0 -153 -104v-1159q0 -105 153 -105v-12h-655z" />
    <glyph glyph-name="J" unicode="J" horiz-adv-x="1175" 
d="M965 526q0 -102 -11.5 -178.5t-43 -146t-84.5 -115t-138 -73.5t-201 -33v12q24 8 42.5 24.5t32 44.5t23 55t15.5 71t9.5 75.5t4.5 87t1.5 86t0.5 90.5v748q0 106 -153 106v13h655v-13q-153 0 -153 -106v-748zM27 260q0 108 62 166.5t153 58.5q74 0 124.5 -37t61.5 -92
q-77 -9 -120.5 -56.5t-43.5 -117.5q0 -67 35.5 -119.5t85.5 -70.5v-12q-157 3 -257.5 78t-100.5 202z" />
    <glyph glyph-name="K" unicode="K" horiz-adv-x="1579" 
d="M590 117q0 -105 151 -105v-12h-653v12q154 0 154 105v1157q0 106 -154 106v13h653v-13q-151 0 -151 -106v-1157zM1456 115q35 -52 69 -77.5t87 -25.5v-12h-672v12q47 0 78 20.5t31 51.5q0 45 -29 90l-322 492q113 113 192 213.5t116.5 173.5t53 123.5t15.5 89.5
q0 55 -43.5 84.5t-93.5 29.5v13h602v-13q-61 0 -103.5 -24.5t-97.5 -77.5l-397 -379z" />
    <glyph glyph-name="L" unicode="L" horiz-adv-x="1306" 
d="M590 0h-502v12q154 0 154 105v1159q0 104 -154 104v13h655v-13q-153 0 -153 -104v-1276zM692 0v12q151 10 249.5 48.5t172.5 127.5t123 242h16v-430h-561z" />
    <glyph glyph-name="M" unicode="M" horiz-adv-x="2015" 
d="M1343 1120v-41l-460 -1079h-29l-586 1276q-49 104 -217 104v13h551l426 -926zM1927 1380q-153 0 -153 -104v-1159q0 -105 153 -105v-12h-655v12q153 0 153 105v1276h502v-13zM301 184q2 -72 53.5 -122t147.5 -50v-12h-451v12q95 0 147 50.5t54 121.5l16 885l17 -37z" />
    <glyph glyph-name="N" unicode="N" horiz-adv-x="1595" 
d="M1354 264v-264h-228l-856 1276q-39 59 -88 81.5t-129 22.5v13h547zM1358 1208l-8 -737l-17 23l-24 714q-2 72 -53.5 122t-147.5 50v13h451v-13q-95 0 -148 -51t-53 -121zM252 184l16 885l17 -25l16 -860q2 -72 53.5 -122t147.5 -50v-12h-451v12q95 0 147 50.5t54 121.5z
" />
    <glyph glyph-name="O" unicode="O" horiz-adv-x="1675" 
d="M786 -20q-90 0 -185.5 30t-185.5 91.5t-160.5 146.5t-113.5 205t-43 256q0 112 30 212t81.5 175.5t119.5 136.5t145 99.5t156.5 59t155.5 21.5v-12q-62 -6 -110 -40.5t-89.5 -109.5t-64 -212t-22.5 -330q0 -153 15.5 -274t41.5 -200t63 -133t77.5 -79t88.5 -31v-12z
M889 -20v12q60 7 109.5 47t90.5 120.5t64 220.5t23 329q0 193 -22.5 330t-64.5 212t-90 109.5t-110 40.5v12q76 -1 155.5 -21.5t156.5 -59t145 -99.5t119.5 -136.5t81.5 -175.5t30 -212q0 -136 -43 -256t-113.5 -205t-160.5 -146.5t-185.5 -91.5t-185.5 -30z" />
    <glyph glyph-name="P" unicode="P" horiz-adv-x="1366" 
d="M88 0v12q154 0 154 105v1159q0 104 -154 104v13h502v-1276q0 -105 153 -105v-12h-655zM692 532v13q91 0 153.5 57t91 153t28.5 224q0 188 -68 294.5t-205 106.5v13q316 0 468.5 -94.5t152.5 -319.5q0 -447 -621 -447z" />
    <glyph glyph-name="Q" unicode="Q" horiz-adv-x="1677" 
d="M1352 -92q70 0 120 28.5t93 92.5l12 -9q-5 -45 -17 -87t-36 -86t-57.5 -75.5t-86.5 -52t-118 -20.5q-86 0 -155 44t-110 109.5t-77.5 142.5t-61 142.5t-58 109.5t-71.5 44q-39 0 -62.5 -30t-23.5 -83q0 -61 44 -115t110 -71v-12q-93 0 -190.5 31t-188.5 93.5
t-162.5 147.5t-114.5 203t-43 250q0 134 42.5 250.5t113 198.5t160.5 141.5t185 88t187 29.5v-12q-62 -7 -110 -42t-89.5 -109t-64 -209t-22.5 -324q0 -428 116 -604q-14 32 -14 73q0 88 53 147.5t146 59.5q51 0 95.5 -26.5t77.5 -69.5t64.5 -94.5t64 -103.5t67 -95
t81.5 -69.5t101 -26.5zM1176 717q0 153 -15.5 270.5t-41.5 192t-64 123.5t-77.5 70.5t-88.5 27.5v12q91 0 187 -28.5t186 -86.5t160.5 -137t113.5 -190t43 -236q0 -102 -38 -202t-101 -179t-140.5 -140t-160.5 -95l-6 10q19 68 29 176.5t12 193.5t2 218z" />
    <glyph glyph-name="R" unicode="R" horiz-adv-x="1521" 
d="M590 117q0 -105 155 -105v-12h-657v12q154 0 154 105v1161q0 49 -34 75.5t-120 26.5v13h502v-1276zM1532 145h12q-24 -82 -105 -123.5t-198 -41.5q-77 0 -136 21t-95 54t-60.5 81.5t-34.5 95.5t-14 104q-3 43 -6 70t-9.5 62.5t-15.5 58t-24 48t-36 41t-50.5 28
t-67.5 18.5v12q135 0 204 102.5t69 265.5q0 172 -66.5 255t-206.5 83v13q320 0 470.5 -81t150.5 -270q0 -167 -120.5 -264t-348.5 -110q108 -5 187.5 -25.5t126.5 -48.5t76.5 -73t41 -86t18.5 -99q16 -130 50.5 -206.5t85.5 -76.5q52 0 102 92z" />
    <glyph glyph-name="S" unicode="S" horiz-adv-x="1316" 
d="M428 1212q0 -57 27 -108t72 -91.5t103.5 -78t123.5 -72.5t130 -70.5t123.5 -76.5t103.5 -86.5t72 -104.5t27 -125q0 -195 -136 -302.5t-378 -116.5v12q95 17 159.5 70t64.5 139q0 57 -27 108t-72 90.5t-104 77t-124 72t-129.5 69.5t-123.5 75.5t-104 85.5t-72 104
t-27 125q0 179 130 285t341 120v-12q-77 -13 -128.5 -61t-51.5 -128zM1139 956q-50 163 -171.5 285.5t-271.5 159.5v12q232 -9 369 -108l74 108h16v-457h-16zM143 479q108 -368 465 -487v-12q-246 6 -397 100l-68 -100h-16v499h16z" />
    <glyph glyph-name="T" unicode="T" horiz-adv-x="1376" 
d="M412 1393v-13q-116 -29 -204.5 -150t-127.5 -292h-17v455h349zM862 121q0 -109 154 -109v-12h-656v12q154 0 154 109v1272h348v-1272zM965 1393h348v-455h-17q-39 171 -127.5 292.5t-203.5 149.5v13z" />
    <glyph glyph-name="U" unicode="U" horiz-adv-x="1523" 
d="M211 389v887q0 104 -154 104v13h656v-13q-154 0 -154 -104v-893q0 -103 19 -185.5t64 -140t112 -65.5v-12q-124 0 -220.5 23.5t-156 61.5t-98 92.5t-53.5 110.5t-15 121zM1286 1124v-735q0 -79 -24.5 -150t-74 -130t-135 -94t-196.5 -35v12q96 2 172 35.5t122.5 88.5
t70.5 123t24 144v741q0 105 -54.5 180.5t-150.5 75.5v13h451v-13q-96 0 -150.5 -76t-54.5 -180z" />
    <glyph glyph-name="V" unicode="V" horiz-adv-x="1480" 
d="M731 -20l-606 1294q-28 60 -68.5 83t-115.5 23v13h739v-13q-77 0 -120 -46.5t-7 -121.5l387 -815l-186 -417h-23zM1024 567l-6 19q145 334 145 571q0 105 -71 164t-162 59v13h590v-9q-66 0 -114 -55t-103 -172z" />
    <glyph glyph-name="W" unicode="W" horiz-adv-x="2123" 
d="M659 1380q-74 0 -107.5 -45.5t-2.5 -122.5l305 -749l-188 -483h-23l-518 1294q-24 59 -66 82.5t-118 23.5v13h718v-13zM1477 1380q-74 0 -108 -46t-3 -122l305 -749l-188 -483h-23l-399 997l-139 -344l-9 18q107 289 107 391q0 28 -12 70l-66 162q-24 59 -66 82.5
t-118 23.5v13h719v-13zM1624 1393h545v-9q-68 0 -120 -57.5t-97 -169.5l-213 -524l-8 18q38 108 57 210.5t21.5 154t2.5 141.5q0 109 -51.5 166t-136.5 57v13z" />
    <glyph glyph-name="X" unicode="X" horiz-adv-x="1503" 
d="M770 0v12q61 0 94 28.5t33 78.5q0 60 -45 131l-651 1030q-65 100 -174 100v13h749v-13q-66 0 -100.5 -27.5t-34.5 -72.5q0 -40 41 -104l672 -1063q65 -101 182 -101v-12h-766zM1065 879l-6 16q71 112 71 246q0 101 -59.5 170t-152.5 69v13h557v-13q-46 0 -88 -39.5
t-95 -119.5zM-35 0v16q73 0 147 54t126 137l223 354l8 -12q-32 -68 -40.5 -134t-8.5 -173q0 -94 51 -162t137 -68v-12h-643z" />
    <glyph glyph-name="Y" unicode="Y" horiz-adv-x="1413" 
d="M889 117q0 -105 153 -105v-12h-655v12q154 0 154 105v375l-404 788q-26 51 -56.5 75.5t-86.5 24.5v13h641v-13q-43 0 -68.5 -18.5t-25.5 -52.5q0 -27 23 -76t146 -288q104 -203 179 -349v-479zM831 1393h601v-13q-46 0 -77 -25t-61 -73l-305 -530l-8 14q45 88 65 131
t37 110t17 138q0 102 -82 168.5t-187 66.5v13z" />
    <glyph glyph-name="Z" unicode="Z" horiz-adv-x="1370" 
d="M68 0l811 1393h391l-813 -1393h-389zM127 899v494h618l-6 -13q-224 -12 -390.5 -149t-205.5 -332h-16zM590 0l6 12q235 21 406 163.5t233 383.5h16v-559h-661z" />
    <glyph glyph-name="bracketleft" unicode="[" horiz-adv-x="688" 
d="M614 1554l-149 -26v-2042l149 -27v-12l-426 61v1997l426 62v-13z" />
    <glyph glyph-name="backslash" unicode="\" horiz-adv-x="937" 
d="M829 -61l-778 1515h58l778 -1515h-58z" />
    <glyph glyph-name="bracketright" unicode="]" horiz-adv-x="688" 
d="M74 1567l426 -62v-1997l-426 -61v12l149 27v2042l-149 26v13z" />
    <glyph glyph-name="asciicircum" unicode="^" horiz-adv-x="872" 
d="M774 827h-57l-281 502l-280 -502h-58l320 566h37z" />
    <glyph glyph-name="underscore" unicode="_" horiz-adv-x="1357" 
d="M0 -276h1358v-52h-1358v52z" />
    <glyph glyph-name="grave" unicode="`" horiz-adv-x="614" 
d="M502 1169q-304 117 -447 361l215 123q33 -127 94.5 -252t141.5 -221z" />
    <glyph glyph-name="a" unicode="a" horiz-adv-x="1259" 
d="M326 659q-82 0 -130.5 47.5t-48.5 114.5q0 41 19.5 77.5t61.5 68.5t116.5 52.5t175.5 24.5v-12q-60 -9 -95.5 -51t-35.5 -98q0 -55 35.5 -87.5t97.5 -37.5q-23 -43 -79 -71t-117 -28zM979 -20q-126 0 -182 51.5t-56 179.5v627q0 80 -34 132t-105 62v12
q252 -9 363.5 -107.5t111.5 -301.5v-498q0 -84 58 -84q48 0 98 92h12q-24 -81 -96.5 -123t-169.5 -42zM354 -20q-132 0 -210.5 70t-77.5 192q1 131 109 204.5t284 73.5h221v-12h-62q-106 0 -161.5 -61.5t-55.5 -161.5q0 -199 129 -199q71 0 150 72v-13q-144 -165 -326 -165z
" />
    <glyph glyph-name="b" unicode="b" horiz-adv-x="1380" 
d="M506 1505v-1247q0 -142 -89 -210t-249 -68v1325q0 57 -34 82.5t-120 25.5v12q143 0 253 18t239 62zM864 1044q63 0 120.5 -14.5t113.5 -52t97 -95t66 -150t25 -210.5q0 -124 -25.5 -220.5t-66.5 -156t-97.5 -97.5t-113.5 -53t-119 -15q-86 0 -172 49.5t-125 115.5v13
q94 -72 170 -72q32 0 58 9.5t53.5 38t46.5 75t31 126.5t12 187t-11.5 185.5t-29.5 122.5t-46 69.5t-53.5 33t-60.5 7.5q-100 0 -170 -76v17q39 66 125 114.5t172 48.5z" />
    <glyph glyph-name="c" unicode="c" horiz-adv-x="1132" 
d="M610 1044v-12q-63 -7 -99.5 -51.5t-55.5 -154t-19 -302.5q0 -213 94.5 -334.5t237.5 -121.5q87 0 157 25.5t142 82.5v-12q-73 -93 -196 -138.5t-238 -45.5q-100 0 -196.5 36t-175 102t-127 170t-48.5 228t48 226.5t124.5 166.5t168 99t183.5 36zM692 1044
q188 0 280.5 -67t92.5 -164q0 -85 -55 -141t-150 -56q-71 0 -119.5 39t-58.5 90q41 17 69.5 62.5t28.5 87.5q0 119 -88 135v14z" />
    <glyph glyph-name="d" unicode="d" horiz-adv-x="1411" 
d="M1212 1505v-1368q0 -84 56 -84q48 0 98 92h12q-24 -81 -96.5 -123t-169.5 -42q-126 0 -182 51.5t-56 179.5v1094q0 57 -33 82.5t-118 25.5v12q142 0 251 18t238 62zM516 1044q86 0 172 -48.5t125 -114.5v-17q-70 76 -170 76q-35 0 -60.5 -7.5t-53.5 -33t-46 -69.5
t-29.5 -122.5t-11.5 -185.5t12 -187t31 -126.5t46.5 -75t53.5 -38t58 -9.5q76 0 170 72v-13q-39 -66 -125 -115.5t-172 -49.5q-62 0 -119 15t-113.5 53t-97.5 97.5t-66.5 156t-25.5 220.5q0 118 25 210.5t66 150t97 95t113.5 52t120.5 14.5z" />
    <glyph glyph-name="e" unicode="e" horiz-adv-x="1153" 
d="M612 -20q-79 0 -155 22.5t-143 67.5t-118 108t-80.5 150.5t-29.5 187.5q0 124 44.5 226.5t117 166.5t160.5 99t180 36v-12q-62 -7 -94.5 -53t-46 -150.5t-13.5 -304.5q0 -216 87 -336t227 -120q87 0 157 25.5t142 82.5v-12q-73 -93 -196 -138.5t-239 -45.5zM547 590v12
q137 0 196.5 51t59.5 178q0 79 -34 135.5t-99 65.5v12q97 0 176 -32t126.5 -83.5t73 -112t25.5 -120.5q0 -54 -10 -106h-514z" />
    <glyph glyph-name="f" unicode="f" horiz-adv-x="780" 
d="M420 1276q0 -50 17.5 -99.5t54.5 -97.5t107 -78t163 -30l-23 -31h-200v-823q0 -45 35.5 -75t119.5 -30v-12h-647v12q84 0 119 30t35 75v823h-133l22 31h111v92q0 106 26 187t74 132.5t107 81.5t133 41v-12q-121 -47 -121 -217zM623 1505q155 -6 234 -67t79 -154
q0 -83 -52.5 -131.5t-125.5 -48.5q-77 0 -129.5 38t-77.5 99q67 0 106 35t39 96q0 44 -20 78t-53 43v12z" />
    <glyph glyph-name="g" unicode="g" horiz-adv-x="1202" 
d="M762 1075l-10 6q14 42 37.5 83t57 78.5t79.5 61t96 23.5q82 0 128 -41.5t46 -114.5q0 -71 -51.5 -115t-114.5 -44q0 64 -30 100.5t-80 36.5q-44 0 -89.5 -22.5t-68.5 -51.5zM555 311q-82 0 -160 20.5t-146.5 61.5t-110.5 114t-42 167q0 77 28 140t73.5 104.5t106 70
t123.5 41.5t128 14v-12q-66 -6 -97.5 -90.5t-31.5 -261.5q0 -184 31 -267t98 -89v-13zM641 311v13q75 6 108 88.5t33 267.5q0 178 -33.5 262t-107.5 90v12q68 -1 132.5 -14t126.5 -41.5t108 -70t74 -104.5t28 -140q0 -76 -28 -138.5t-74.5 -103.5t-108 -69t-126 -40
t-132.5 -12zM641 -512v12q73 9 128 32.5t84.5 54t43.5 61.5t14 61q0 58 -44 92t-114.5 47.5t-155.5 20.5t-170 17t-155.5 30t-114.5 68t-44 122q0 123 137 209l6 -10q-18 -12 -18 -39q0 -46 51.5 -71t133.5 -33t181.5 -12.5t199.5 -17t182 -39t133.5 -86t51.5 -150.5
q0 -160 -136 -257t-394 -112zM559 -512q-88 2 -163 12t-141 30.5t-104 56.5t-38 85q0 58 45.5 94.5t111.5 50t154 13.5q-32 -14 -60 -55t-28 -90q0 -68 65.5 -119.5t157.5 -65.5v-12z" />
    <glyph glyph-name="h" unicode="h" horiz-adv-x="1423" 
d="M528 1505v-1388q0 -45 35 -75t119 -30v-12h-645v12q153 0 153 105v1188q0 57 -33 82.5t-118 25.5v12q292 0 489 80zM930 1044q145 0 230 -71t85 -217v-639q0 -45 35 -75t119 -30v-12h-643v12q151 0 151 105v639q0 85 -42.5 129.5t-119.5 44.5q-85 0 -155 -64v13
q44 68 137.5 116.5t202.5 48.5z" />
    <glyph glyph-name="i" unicode="i" horiz-adv-x="733" 
d="M367 1171q-93 0 -151 50t-58 131q0 79 58 128.5t151 49.5q92 0 150 -49.5t58 -128.5q0 -81 -57.5 -131t-150.5 -50zM53 954v13q293 0 490 80v-930q0 -105 153 -105v-12h-645v12q84 0 119 30t35 75v729q0 57 -33.5 82.5t-118.5 25.5z" />
    <glyph glyph-name="j" unicode="j" horiz-adv-x="690" 
d="M344 1171q-93 0 -151 50t-58 131q0 79 58 128.5t151 49.5t151 -49.5t58 -128.5q0 -81 -58 -131t-151 -50zM33 954v13q292 0 489 80v-1108q0 -98 -26.5 -175t-73 -128.5t-113 -85t-143.5 -48t-168 -14.5v12q90 0 138 53.5t48 141.5v1151q0 57 -33 82.5t-118 25.5z" />
    <glyph glyph-name="k" unicode="k" horiz-adv-x="1345" 
d="M528 117q0 -45 35 -75t119 -30v-12h-645v12q153 0 153 105v1188q0 57 -33 82.5t-118 25.5v12q292 0 489 80v-1388zM1190 129q32 -48 65 -74t55.5 -32t65.5 -11v-12q-71 -20 -205 -20q-54 0 -97 6.5t-93.5 26t-96 61t-83.5 104.5l-193 322q134 117 224 231t90 187
q0 45 -27.5 69.5t-93.5 24.5v12h524v-12q-68 0 -115 -37l-374 -297z" />
    <glyph glyph-name="l" unicode="l" horiz-adv-x="718" 
d="M39 1413v12q292 0 489 80v-1388q0 -45 35 -75t119 -30v-12h-645v12q153 0 153 105v1188q0 57 -33 82.5t-118 25.5z" />
    <glyph glyph-name="m" unicode="m" horiz-adv-x="2076" 
d="M541 1044v-927q0 -105 153 -105v-12h-645v12q84 0 119 30t35 75v727q0 57 -33.5 82.5t-118.5 25.5v13q296 0 490 79zM903 1044q152 0 235 -70.5t83 -217.5v-639q0 -105 151 -105v-12h-643v12q83 0 118.5 30t35.5 75v639q0 174 -144 174q-41 0 -77 -18t-58 -44v13
q38 70 115.5 116.5t183.5 46.5zM1581 1044q317 0 317 -288v-639q0 -45 35 -75t119 -30v-12h-645v12q83 0 118.5 30t35.5 75v639q0 174 -144 174q-41 0 -77 -18t-58 -44v13q38 70 115.5 116.5t183.5 46.5z" />
    <glyph glyph-name="n" unicode="n" horiz-adv-x="1437" 
d="M49 0v12q84 0 119 30t35 75v727q0 57 -33.5 82.5t-118.5 25.5v13q296 0 490 79v-927q0 -105 153 -105v-12h-645zM770 0v12q83 0 117.5 30t34.5 75v639q0 85 -42.5 129.5t-119.5 44.5q-86 0 -156 -64v13q44 68 137.5 116.5t202.5 48.5q145 0 230.5 -71t85.5 -217v-639
q0 -105 153 -105v-12h-643z" />
    <glyph glyph-name="o" unicode="o" horiz-adv-x="1271" 
d="M596 1044v-12q-63 -7 -96.5 -52.5t-49.5 -154t-16 -309.5q0 -195 15.5 -305.5t50 -161.5t96.5 -57v-12q-72 0 -144 22.5t-137.5 68t-116.5 108t-81.5 150t-30.5 187.5t30 186.5t80.5 148t116.5 105.5t138 65.5t145 22.5zM678 1044q72 0 144 -21.5t137.5 -65.5t116 -105.5
t80.5 -148.5t30 -187q0 -123 -46 -227t-120 -170t-163 -102.5t-179 -36.5v12q91 9 125.5 122.5t34.5 401.5q0 202 -16 311t-49 154t-95 51v12z" />
    <glyph glyph-name="p" unicode="p" horiz-adv-x="1396" 
d="M522 1047v-1358q0 -58 33.5 -83.5t118.5 -25.5v-12q-142 0 -251.5 -18t-238.5 -62v1358q0 57 -33 82.5t-118 25.5v13q142 0 251 18t238 62zM883 1044q63 0 120 -14.5t113 -52t96.5 -95t65.5 -150t25 -210.5q0 -124 -25.5 -220.5t-66 -156t-97 -97.5t-113 -53t-118.5 -15
q-86 0 -173 49.5t-126 115.5v13q94 -72 172 -72q32 0 58 9.5t53 38t45.5 75t30 126.5t11.5 187q0 108 -11 186t-28.5 122t-45 69.5t-53 33t-60.5 7.5q-102 0 -172 -76v17q39 66 126 114.5t173 48.5z" />
    <glyph glyph-name="q" unicode="q" horiz-adv-x="1380" 
d="M1212 1047v-1358q0 -58 33.5 -83.5t118.5 -25.5v-12q-142 0 -251.5 -18t-238.5 -62v1481q198 19 338 78zM514 1044q86 0 173 -48.5t126 -114.5v-17q-70 76 -172 76q-35 0 -60.5 -7.5t-53 -33t-45 -69.5t-29 -122t-11.5 -186q0 -107 12 -187t30.5 -126.5t45.5 -75t53 -38
t58 -9.5q78 0 172 72v-13q-39 -66 -126 -115.5t-173 -49.5q-62 0 -118.5 15t-113 53t-97 97.5t-66 156t-25.5 220.5q0 118 25 210.5t65.5 150t96.5 95t113 52t120 14.5z" />
    <glyph glyph-name="r" unicode="r" horiz-adv-x="1130" 
d="M541 1044v-927q0 -105 153 -105v-12h-645v12q84 0 119 30t35 75v727q0 57 -33.5 82.5t-118.5 25.5v13q296 0 490 79zM874 1044q103 0 161.5 -62.5t58.5 -158.5q0 -103 -62.5 -168t-148.5 -65q-83 0 -117 45q80 41 80 139q0 46 -31.5 78.5t-83.5 32.5q-78 0 -123 -78v16
q30 100 101 160.5t165 60.5z" />
    <glyph glyph-name="s" unicode="s" horiz-adv-x="1118" 
d="M510 1044v-12q-65 -12 -107 -45.5t-41 -91.5q1 -38 24.5 -72.5t62.5 -62t89.5 -54.5t105.5 -53t110.5 -53t105.5 -59t88.5 -67.5t61 -82t22.5 -98.5q0 -146 -114.5 -225.5t-317.5 -87.5v12q37 6 65.5 15t57 25.5t44 44.5t15.5 66q0 43 -37 83.5t-96 75t-130.5 69.5
t-143.5 74t-131 81.5t-96 99t-37 119.5q0 132 111 211.5t288 87.5zM600 1044q175 -9 284 -66.5t109 -143.5q0 -52 -39.5 -89.5t-111.5 -37.5q-64 0 -108.5 26t-65.5 72q44 3 69 30.5t23 65.5q0 45 -49 84t-111 47v12zM262 334q60 0 108 -25t72 -65q-51 -2 -82.5 -30
t-31.5 -73q0 -53 43 -96t139 -53v-12q-204 7 -313 60t-109 142q0 68 51 110t123 42z" />
    <glyph glyph-name="t" unicode="t" horiz-adv-x="843" 
d="M649 53q90 0 195 105v-13q-51 -73 -144.5 -119t-205.5 -46q-146 0 -231 70.5t-85 217.5v672h-106l22 31h84v221q203 0 336 115v-336h277l-23 -31h-254v-678q0 -86 34 -147.5t101 -61.5z" />
    <glyph glyph-name="u" unicode="u" horiz-adv-x="1398" 
d="M518 1044v-776q0 -88 33 -131t108 -43q81 0 142 64v-13q-39 -72 -120 -118.5t-198 -46.5q-144 0 -223.5 70.5t-79.5 217.5v576q0 57 -33 82.5t-118 25.5v13q295 0 489 79zM1200 1044v-907q0 -84 55 -84q49 0 99 92h12q-24 -82 -98.5 -123.5t-180.5 -41.5t-165.5 54.5
t-59.5 145.5v664q0 57 -32 82.5t-113 25.5v13q139 0 247 17.5t236 61.5z" />
    <glyph glyph-name="v" unicode="v" horiz-adv-x="1169" 
d="M571 0l-475 940q-33 72 -112 72v12h573v-12q-54 0 -72.5 -33.5t7.5 -87.5l268 -559l-176 -332h-13zM858 514l-12 18q57 107 57 265q0 92 -53 153.5t-156 61.5v12h510v-12q-49 0 -75.5 -21t-57.5 -76z" />
    <glyph glyph-name="w" unicode="w" horiz-adv-x="1843" 
d="M557 1012q-54 0 -72.5 -33.5t7.5 -87.5l268 -559l-176 -332h-13l-475 940q-33 72 -112 72v12h573v-12zM1231 1012q-54 0 -73 -33.5t7 -87.5l269 -559l-177 -332h-12l-321 637l-66 -123l-12 18q25 52 30.5 117.5t-14.5 110.5l-92 180q-33 72 -113 72v12h574v-12z
M1368 1024h510v-12q-49 0 -76.5 -21t-56.5 -76l-213 -401l-12 18q57 107 57 265q0 92 -53 153.5t-156 61.5v12z" />
    <glyph glyph-name="x" unicode="x" horiz-adv-x="1189" 
d="M573 0v12q115 0 115 70q0 42 -41 106l-481 752q-24 36 -57.5 54t-100.5 18v12h621v-12q-48 0 -70 -10.5t-22 -34.5q0 -40 59 -129l477 -754q44 -72 121 -72v-12h-621zM858 616l-12 19q47 90 47 205q0 77 -44 124.5t-120 47.5v12h434v-12q-84 0 -149 -117zM-23 0v12
q56 0 114.5 35.5t101.5 99.5l182 275l12 -19q-65 -107 -65 -219q0 -72 43 -122t108 -50v-12h-496z" />
    <glyph glyph-name="y" unicode="y" horiz-adv-x="1169" 
d="M578 0l-476 940q-33 72 -112 72v12h573v-12q-54 0 -72.5 -33.5t7.5 -87.5l268 -559l-176 -332h-12zM864 514l-12 18q57 107 57 265q0 92 -53 153.5t-156 61.5v12h510v-12q-49 0 -75.5 -21t-57.5 -76zM193 -512q-84 0 -132.5 51t-48.5 131q0 66 49 118t132 75
q-9 -27 -9 -51q-2 -60 30.5 -99t90.5 -39q51 0 96.5 49t110.5 158h14q-13 -24 -36 -68.5t-35.5 -67t-33 -59.5t-34 -56.5t-33.5 -46.5t-36.5 -41t-37 -28t-42.5 -20t-45 -6z" />
    <glyph glyph-name="z" unicode="z" horiz-adv-x="1163" 
d="M57 0l652 1024h362l-645 -1024h-369zM111 662v362h475l-8 -12q-101 0 -198.5 -46t-167 -127t-89.5 -177h-12zM549 0l8 12q163 0 315 121.5t181 286.5h12v-420h-516z" />
    <glyph glyph-name="braceleft" unicode="{" horiz-adv-x="702" 
d="M555 1479q-50 0 -82.5 -40t-32.5 -104q0 -70 36 -244.5t36 -293.5q0 -110 -86 -193t-209 -106q123 -23 209 -106t86 -195q0 -117 -36 -292t-36 -245q0 -65 32.5 -105t82.5 -40q44 0 86 28v-12q-60 -43 -178 -43q-130 0 -203.5 64t-73.5 194q0 115 34 302t34 271
q0 81 -46 127t-161 46v12q115 0 161 46t46 126q0 83 -34 270.5t-34 302.5q0 129 73.5 192.5t203.5 63.5q118 0 178 -43v-12q-44 29 -86 29z" />
    <glyph glyph-name="bar" unicode="|" horiz-adv-x="444" 
d="M195 -410v1915h55v-1915h-55z" />
    <glyph glyph-name="braceright" unicode="}" horiz-adv-x="700" 
d="M653 492q-115 0 -161 -46t-46 -127q0 -84 34 -271t34 -302q0 -131 -73 -194.5t-203 -63.5q-119 0 -179 43v12q42 -28 86 -28q50 0 82.5 40t32.5 105q0 70 -36 245t-36 292q0 112 86 195t209 106q-123 23 -209 106t-86 193q0 119 36 293.5t36 244.5q0 64 -32.5 104
t-82.5 40q-43 0 -86 -29v12q60 43 179 43q129 0 202.5 -63.5t73.5 -192.5q0 -115 -34 -302.5t-34 -270.5q0 -80 46 -126t161 -46v-12z" />
    <glyph glyph-name="asciitilde" unicode="~" horiz-adv-x="1171" 
d="M797 463q-49 0 -110.5 34t-109.5 74.5t-104.5 74.5t-97.5 34q-87 0 -132.5 -49.5t-45.5 -143.5h-52q0 115 60.5 179.5t169.5 64.5q49 0 110.5 -34t109.5 -74.5t104.5 -74.5t97.5 -34q85 0 132.5 50t47.5 141h51q0 -112 -62 -177t-169 -65z" />
    <glyph glyph-name="exclamdown" unicode="&#xa1;" horiz-adv-x="671" 
d="M336 711q-97 0 -158 51t-61 135q0 85 60.5 136.5t158.5 51.5t158.5 -51.5t60.5 -136.5q0 -84 -61 -135t-158 -51zM336 -467q-115 0 -177.5 80.5t-62.5 198.5q0 61 23.5 135t57.5 147t68 149t57.5 164.5t23.5 170.5h20q0 -100 36 -213.5t78.5 -197.5t78.5 -182.5
t36 -172.5q0 -118 -62 -198.5t-177 -80.5z" />
    <glyph glyph-name="cent" unicode="&#xa2;" horiz-adv-x="1163" 
d="M682 911q41 17 69.5 62.5t28.5 87.5q0 119 -88 135v199h41v-185q167 -8 249.5 -73.5t82.5 -157.5q0 -85 -55 -141t-150 -56q-71 0 -119.5 39t-58.5 90zM768 233q87 0 156.5 25.5t142.5 83.5v-12q-58 -73 -147 -117t-187 -59v-185h-41v178q-20 -2 -59 -2
q-100 0 -196.5 36.5t-175 102.5t-127 170t-48.5 228t48 226.5t124.5 166.5t168 99t183.5 36v-12q-63 -7 -99.5 -51.5t-55.5 -154t-19 -302.5q0 -214 95 -335.5t237 -121.5z" />
    <glyph glyph-name="sterling" unicode="&#xa3;" horiz-adv-x="1370" 
d="M1014 672h-338q30 -84 44.5 -129.5t29 -117.5t14.5 -134q0 -140 -74.5 -225.5t-195.5 -85.5q-80 0 -170 20l2 12q12 -2 32 -2q76 0 116 63t40 167q0 47 -17.5 108t-31.5 95t-56 121.5t-51 107.5h-200v51h178q-64 149 -64 254q0 178 118 297.5t312 138.5v-12
q-55 -10 -92 -86.5t-37 -173.5q0 -174 84 -418h357v-51zM780 1143q64 0 105 37t41 88q0 54 -38.5 89t-103.5 44v12q172 -6 276.5 -72.5t104.5 -169.5q0 -80 -48 -122.5t-130 -42.5q-68 0 -125 38t-82 99zM1112 387q86 0 138.5 -50.5t52.5 -135.5q0 -100 -61 -160.5
t-161 -60.5q-95 0 -173.5 49t-110.5 129l2 10q79 -45 176 -45q79 0 131.5 42t52.5 101q0 76 -51 111zM201 145q0 -30 13 -61t34 -51l-4 -8q-76 12 -125 63t-49 125q0 70 53.5 117t128.5 47q144 0 205 -148v-12q-52 47 -133 47q-55 0 -89 -31.5t-34 -87.5z" />
    <glyph glyph-name="currency" unicode="&#xa4;" horiz-adv-x="1077" 
d="M905 659q0 -143 -94 -243l131 -131l-29 -29l-129 129q-107 -92 -243 -92q-144 0 -244 94l-133 -131l-29 29l133 131q-94 100 -94 243q0 137 92 244l-131 131l29 29l133 -133q100 94 244 94q136 0 243 -92l129 131l29 -29l-129 -131q92 -107 92 -244zM541 369
q120 0 202 84t82 206q0 120 -82 204.5t-202 84.5q-121 0 -204 -84t-83 -205q0 -122 83 -206t204 -84z" />
    <glyph glyph-name="yen" unicode="&#xa5;" horiz-adv-x="1540" 
d="M598 1309q0 -26 21.5 -72t124.5 -247q105 -203 182 -355h295v-51h-275v-195h275v-51h-275v-221q0 -105 154 -105v-12h-656v12q154 0 154 105v221h-279v51h279v103l-47 92h-232v51h205l-329 645q-26 51 -57 75.5t-87 24.5v13h641v-13q-43 0 -68.5 -18.5t-25.5 -52.5z
M889 1393h600v-13q-46 0 -76.5 -24.5t-60.5 -73.5l-305 -530l-9 14q45 88 65 131t37 110t17 138q0 102 -81.5 168.5t-186.5 66.5v13z" />
    <glyph glyph-name="brokenbar" unicode="&#xa6;" horiz-adv-x="432" 
d="M188 840v665h56v-665h-56zM188 -410v666h56v-666h-56z" />
    <glyph glyph-name="section" unicode="&#xa7;" horiz-adv-x="1058" 
d="M780 340l-45 31q35 35 35 96q0 58 -33 110t-85 93.5t-115.5 81t-127 80.5t-115.5 84t-85 99t-33 118q0 123 87.5 197t234.5 83v-14q-126 -32 -123 -137q1 -38 27 -75.5t67.5 -68.5t94.5 -65.5t108 -66t108 -71t94 -79.5t66 -91.5t25 -107.5q0 -102 -48.5 -179.5
t-136.5 -117.5zM782 1079q-49 0 -89.5 23.5t-59.5 62.5q35 5 57.5 33.5t22.5 71.5q0 47 -38 82.5t-100 46.5v14q151 -11 242.5 -64.5t91.5 -131.5q0 -62 -34.5 -100t-92.5 -38zM561 -266v14q59 17 92 50.5t33 74.5q0 58 -33 110t-85 93.5t-115.5 81t-127 80.5t-115.5 84
t-85 99t-33 118q0 104 63.5 173.5t174.5 94.5l32 -21q-74 -36 -71 -118q1 -38 27 -75.5t67.5 -68.5t94.5 -65.5t108 -66t108 -71t94 -79.5t66 -91.5t25 -107.5q0 -80 -26.5 -141t-72.5 -97t-101.5 -53.5t-119.5 -17.5zM483 -266q-151 10 -242 64t-91 132q0 62 34 100t92 38
q49 0 90 -23.5t60 -62.5q-35 -5 -57.5 -33.5t-22.5 -71.5q0 -47 38 -83t99 -46v-14z" />
    <glyph glyph-name="dieresis" unicode="&#xa8;" horiz-adv-x="1052" 
d="M258 1225q-77 0 -126.5 46t-49.5 120q0 68 49 111.5t125 43.5q79 0 129.5 -43t50.5 -112q0 -74 -50.5 -120t-127.5 -46zM797 1225q-77 0 -126.5 46t-49.5 120q0 69 49.5 112t126.5 43t125.5 -43t48.5 -112q0 -75 -48.5 -120.5t-125.5 -45.5z" />
    <glyph glyph-name="copyright" unicode="&#xa9;" horiz-adv-x="1269" 
d="M635 1413q219 0 372.5 -150.5t153.5 -367.5q0 -144 -70 -263t-190.5 -187t-265.5 -68q-219 0 -372.5 150.5t-153.5 367.5t153.5 367.5t372.5 150.5zM635 422q203 0 340 135t137 338q0 202 -137 337.5t-340 135.5q-202 0 -339.5 -135.5t-137.5 -337.5t137.5 -337.5
t339.5 -135.5zM846 1163l28 49h13v-215h-15q-52 203 -202 203q-82 0 -117 -68.5t-35 -222.5q0 -280 191 -280q106 0 165 84l7 -13q-33 -53 -89 -80.5t-122 -27.5q-56 0 -112.5 19.5t-104.5 56.5t-78.5 98t-30.5 135q0 140 88 226.5t238 86.5q106 0 176 -51z" />
    <glyph glyph-name="ordfeminine" unicode="&#xaa;" horiz-adv-x="909" 
d="M262 1178q-49 0 -78.5 28.5t-29.5 67.5q0 58 55.5 95.5t173.5 43.5v-8q-37 -4 -59.5 -30t-22.5 -60t22 -54.5t60 -23.5q-13 -26 -47.5 -42.5t-73.5 -16.5zM664 760q-77 0 -111.5 31.5t-34.5 109.5v385q0 49 -21 81t-65 38v8q155 -6 224 -66t69 -186v-305q0 -51 35 -51
q33 0 59 57h8q-14 -50 -58.5 -76t-104.5 -26zM281 760q-81 0 -130.5 43t-48.5 117q1 81 68 126.5t174 45.5h137v-9h-39q-65 0 -99 -38t-34 -99q0 -121 80 -121q42 0 92 43v-6q-90 -102 -200 -102z" />
    <glyph glyph-name="guillemotleft" unicode="&#xab;" horiz-adv-x="1193" 
d="M594 915q-29 -107 -91 -216t-141 -195q78 -86 140 -195.5t92 -216.5l-21 -10q-125 132 -244 227.5t-257 173.5v41q261 147 501 402zM1079 915q-29 -108 -90.5 -216.5t-140.5 -194.5q77 -86 139 -195t92 -217l-20 -10q-124 132 -244 227.5t-258 173.5v41q138 78 257.5 174
t244.5 228z" />
    <glyph glyph-name="registered" unicode="&#xae;" horiz-adv-x="1269" 
d="M635 1413q219 0 372.5 -150.5t153.5 -367.5q0 -144 -70 -263t-190.5 -187t-265.5 -68q-219 0 -372.5 150.5t-153.5 367.5t153.5 367.5t372.5 150.5zM635 422q203 0 340 135t137 338q0 202 -137 337.5t-340 135.5q-202 0 -339.5 -135.5t-137.5 -337.5t137.5 -337.5
t339.5 -135.5zM971 664h12q-9 -39 -36 -55.5t-83 -16.5q-46 0 -78 13t-48 36.5t-23 47.5t-10 56q-3 33 -7 53.5t-14 41.5t-30.5 31t-51.5 10h-33v-215q0 -52 66 -52v-14h-283v14q68 0 68 52v487q0 19 -14.5 27t-53.5 8v14h262q137 0 202 -35t65 -116q0 -62 -45.5 -104.5
t-124.5 -57.5q83 -11 117.5 -48t43.5 -96q17 -122 58 -122q17 0 26 9.5t15 31.5zM569 895h33q62 0 95.5 43.5t33.5 112.5q0 73 -27.5 105t-89.5 32h-45v-293z" />
    <glyph glyph-name="macron" unicode="&#xaf;" horiz-adv-x="813" 
d="M82 1434h649v-72h-649v72z" />
    <glyph glyph-name="degree" unicode="&#xb0;" horiz-adv-x="671" 
d="M336 1149q-106 0 -179 72t-73 178t73 178t179 72t179 -72t73 -178t-73 -178t-179 -72zM336 1210q72 0 128 57t56 132q0 76 -56 133t-128 57t-128 -57t-56 -133q0 -75 56 -132t128 -57z" />
    <glyph glyph-name="plusminus" unicode="&#xb1;" horiz-adv-x="1220" 
d="M639 745h412v-51h-412v-293h-55v293h-414v51h414v293h55v-293zM170 186v52h881v-52h-881z" />
    <glyph glyph-name="acute" unicode="&#xb4;" horiz-adv-x="532" 
d="M51 1159l-10 19q69 86 130.5 218t102.5 263l218 -129q-74 -116 -201.5 -223.5t-239.5 -147.5z" />
    <glyph glyph-name="paragraph" unicode="&#xb6;" horiz-adv-x="1243" 
d="M63 979q0 114 46 195t136.5 128.5t212.5 69t287 21.5v-1112q0 -238 -69 -386.5t-182 -160.5v12q21 10 37 36t25 71t15 85t8 110t2.5 111.5t0.5 121.5v260q-247 24 -383 132t-136 306zM930 1393h246v-13q-96 0 -150.5 -76t-54.5 -180v-692q0 -241 -27 -370.5t-102 -239.5
v12q54 93 71 237t17 361v961z" />
    <glyph glyph-name="periodcentered" unicode="&#xb7;" horiz-adv-x="604" 
d="M301 309q-77 0 -126.5 46t-49.5 120q0 69 49.5 112.5t124.5 43.5q78 0 129 -43.5t51 -112.5q0 -74 -50.5 -120t-127.5 -46z" />
    <glyph glyph-name="cedilla" unicode="&#xb8;" horiz-adv-x="708" 
d="M342 -573q-71 0 -139.5 30t-106.5 86l15 8q63 -57 145 -57q61 0 105.5 42.5t44.5 109.5q0 68 -64 112.5t-143 44.5l176 191h43l-105 -119q143 3 228.5 -52.5t85.5 -156.5q0 -105 -85.5 -172t-199.5 -67z" />
    <glyph glyph-name="ordmasculine" unicode="&#xba;" horiz-adv-x="862" 
d="M406 760q-55 0 -110 22t-101 62.5t-74.5 104.5t-28.5 141q0 76 28 138.5t74 101.5t101 60.5t111 22.5v-8q-57 -6 -79 -71t-22 -244q0 -177 22.5 -247.5t78.5 -76.5v-6zM455 760v6q57 6 77.5 76t20.5 248q0 124 -9.5 190.5t-30 94t-58.5 30.5v8q56 0 111 -21.5
t100.5 -60.5t73.5 -102t28 -139t-28.5 -140t-74 -104.5t-100.5 -63t-110 -22.5z" />
    <glyph glyph-name="guillemotright" unicode="&#xbb;" horiz-adv-x="1193" 
d="M637 524v-41q-138 -78 -258 -173.5t-244 -227.5l-20 10q30 108 92 217t139 195q-79 86 -140.5 194.5t-90.5 216.5l20 11q125 -132 244.5 -228t257.5 -174zM621 926q240 -255 501 -402v-41q-138 -78 -257 -173.5t-244 -227.5l-21 10q30 108 92 217t139 195
q-79 86 -140.5 194.5t-90.5 216.5z" />
    <glyph glyph-name="onequarter" unicode="&#xbc;" horiz-adv-x="1435" 
d="M1147 1454h57l-999 -1515h-58zM119 727q47 0 65.5 17.5t18.5 50.5v438q0 19 -4.5 31t-10.5 18.5t-21 9.5t-25.5 3.5t-34.5 0.5h-9v15q67 9 151.5 38.5t135.5 63.5v-618q0 -34 17.5 -51t64.5 -17v-14h-348v14zM1374 172h-133v-88q0 -38 17 -54t65 -16v-14h-344v14
q49 0 66.5 16t17.5 54v88h-295v14q227 143 227 308q0 59 -26.5 80.5t-85.5 21.5l-31 -4q23 49 68 78.5t98 29.5q74 0 119 -33.5t45 -88.5q0 -53 -33 -109t-89.5 -106.5t-121 -94t-139.5 -82.5h264v72q100 81 172 213h6v-285h133v-14z" />
    <glyph glyph-name="onehalf" unicode="&#xbd;" horiz-adv-x="1421" 
d="M1106 1454h57l-999 -1515h-58zM197 1233q0 12 -1 21t-5.5 15.5t-7 11t-10.5 7.5t-11.5 5t-15.5 2.5t-15.5 0.5h-19h-19.5v15q67 9 151.5 38.5t135.5 63.5v-618q0 -34 17.5 -51t64.5 -17v-14h-348v14q47 0 65.5 17.5t18.5 50.5v438zM1335 227h15q0 -66 -5.5 -106.5
t-21.5 -75t-48.5 -50t-84.5 -15.5q-53 0 -131.5 29.5t-118.5 29.5q-52 0 -74.5 -11t-38.5 -38h-12q0 59 18 108.5t46.5 84.5t63.5 66.5t70 60.5t63.5 60t46.5 72.5t18 89.5q0 74 -33 110t-78 36q-41 0 -70.5 -26t-29.5 -74q0 -37 27.5 -58.5t60.5 -21.5q0 -49 -29 -74
t-71 -25q-52 0 -84.5 32.5t-32.5 84.5q0 79 71 127.5t185 48.5q123 0 197.5 -48t74.5 -128q0 -46 -29 -88t-78 -76t-98.5 -60.5t-107.5 -56.5t-88 -51q62 -3 114 -12q115 -18 152 -18q68 0 100.5 13.5t40.5 59.5z" />
    <glyph glyph-name="threequarters" unicode="&#xbe;" horiz-adv-x="1538" 
d="M1202 1454h58l-1000 -1515h-57zM586 893q0 -62 -41 -107.5t-100.5 -65.5t-127.5 -20q-89 0 -152 35t-63 96q0 47 32 72t73 25q38 0 64 -21.5t26 -54.5q-33 0 -58.5 -17t-25.5 -47q0 -36 22 -54.5t54 -18.5q46 0 81.5 41.5t35.5 126.5q0 73 -38.5 126.5t-109.5 57.5v14
q73 3 110.5 54.5t37.5 124.5t-31.5 106t-75.5 33q-35 0 -60.5 -19.5t-25.5 -54.5q0 -28 26 -45.5t58 -17.5q0 -35 -25 -55.5t-65 -20.5q-44 0 -74.5 26t-30.5 76q0 59 63 92t152 33q67 0 127 -18.5t101 -58t41 -93.5t-38.5 -92t-88 -54.5t-109.5 -23.5q42 -5 82 -17.5
t75.5 -33.5t57 -54.5t21.5 -74.5zM1479 172h-133v-88q0 -38 16.5 -54t64.5 -16v-14h-344v14q49 0 66.5 16t17.5 54v88h-295v14q70 44 118.5 90.5t70.5 88t30.5 71.5t8.5 58q0 59 -27 80.5t-86 21.5l-31 -4q23 49 68 78.5t98 29.5q74 0 119 -33.5t45 -88.5q0 -53 -33 -109
t-89.5 -106.5t-121 -94t-139.5 -82.5h264v72q100 81 172 213h7v-285h133v-14z" />
    <glyph glyph-name="questiondown" unicode="&#xbf;" horiz-adv-x="1150" 
d="M573 709q-97 0 -158 51t-61 135q0 85 60.5 136.5t158.5 51.5t159 -51.5t61 -136.5q0 -84 -61 -135t-159 -51zM559 -469q-110 7 -197.5 29t-156 61.5t-105.5 102t-37 145.5q0 65 33 124.5t82.5 101.5t107 84.5t107 76.5t82.5 76t33 84q0 41 -17 68.5t-57 50.5l2 12
q147 0 224 -64.5t77 -163.5q0 -53 -24 -102.5t-60 -86t-78.5 -79t-78.5 -81t-60 -94t-24 -116.5q0 -85 34.5 -137.5t112.5 -79.5v-12zM662 -469v12q70 21 107.5 77t37.5 122q0 129 -115 176q27 38 76.5 60t112.5 22q87 0 150 -49.5t63 -143.5q0 -65 -41 -118.5t-106 -86
t-138.5 -51t-146.5 -20.5z" />
    <glyph glyph-name="Agrave" unicode="&#xc0;" horiz-adv-x="1486" 
d="M1006 1505v-10q-324 33 -525 234l176 174q65 -114 157 -220.5t192 -177.5zM1360 119q28 -60 68.5 -83.5t115.5 -23.5v-12h-739v12q77 0 120 46.5t7 121.5l-387 815l188 418h21zM686 410l-379 -13q-28 -92 -28 -161q0 -54 24.5 -98t63 -70.5t82.5 -41t86 -14.5v-12h-590v8
q129 0 237 228l281 589l6 -18q-109 -236 -152 -373l363 -12z" />
    <glyph glyph-name="Aacute" unicode="&#xc1;" horiz-adv-x="1486" 
d="M829 1903l177 -174q-201 -201 -525 -234v10q100 71 191.5 177.5t156.5 220.5zM1360 119q28 -60 68.5 -83.5t115.5 -23.5v-12h-739v12q77 0 120 46.5t7 121.5l-387 815l188 418h21zM686 410l-379 -13q-28 -92 -28 -161q0 -54 24.5 -98t63 -70.5t82.5 -41t86 -14.5v-12
h-590v8q129 0 237 228l281 589l6 -18q-109 -236 -152 -373l363 -12z" />
    <glyph glyph-name="Acircumflex" unicode="&#xc2;" horiz-adv-x="1486" 
d="M743 1667q-143 -128 -348 -172l-6 12q238 175 318 371h73q82 -198 318 -371l-6 -12q-206 44 -349 172zM1360 119q28 -60 68.5 -83.5t115.5 -23.5v-12h-739v12q77 0 120 46.5t7 121.5l-387 815l188 418h21zM686 410l-379 -13q-28 -92 -28 -161q0 -54 24.5 -98t63 -70.5
t82.5 -41t86 -14.5v-12h-590v8q129 0 237 228l281 589l6 -18q-109 -236 -152 -373l363 -12z" />
    <glyph glyph-name="Atilde" unicode="&#xc3;" horiz-adv-x="1486" 
d="M418 1524q-25 22 -41.5 60.5t-16.5 78.5q0 76 49 125t152 49q70 0 154.5 -28.5t161 -56.5t124.5 -28q42 0 64 18t22 48q0 27 -32 65h12q25 -22 41 -59t16 -74q0 -78 -48 -129t-152 -51q-56 0 -122 17.5t-116 39t-107 39t-96 17.5q-42 0 -64 -18t-22 -48q0 -26 33 -65h-12
zM1360 119q28 -60 68.5 -83.5t115.5 -23.5v-12h-739v12q77 0 120 46.5t7 121.5l-387 815l188 418h21zM686 410l-379 -13q-28 -92 -28 -161q0 -54 24.5 -98t63 -70.5t82.5 -41t86 -14.5v-12h-590v8q129 0 237 228l281 589l6 -18q-109 -236 -152 -373l363 -12z" />
    <glyph glyph-name="Adieresis" unicode="&#xc4;" horiz-adv-x="1486" 
d="M475 1530q-77 0 -126.5 46t-49.5 120q0 68 49 111.5t125 43.5q79 0 129.5 -43t50.5 -112q0 -74 -50.5 -120t-127.5 -46zM1014 1530q-77 0 -126.5 46t-49.5 120q0 69 49.5 112t126.5 43t125.5 -43t48.5 -112q0 -75 -48.5 -120.5t-125.5 -45.5zM1360 119q28 -60 68.5 -83.5
t115.5 -23.5v-12h-739v12q77 0 120 46.5t7 121.5l-387 815l188 418h21zM686 410l-379 -13q-28 -92 -28 -161q0 -54 24.5 -98t63 -70.5t82.5 -41t86 -14.5v-12h-590v8q129 0 237 228l281 589l6 -18q-109 -236 -152 -373l363 -12z" />
    <glyph glyph-name="Aring" unicode="&#xc5;" horiz-adv-x="1486" 
d="M743 1487q-88 0 -149.5 60.5t-61.5 148.5t61.5 148.5t149.5 60.5t149.5 -60.5t61.5 -148.5t-61.5 -148.5t-149.5 -60.5zM743 1821q-51 0 -85.5 -35.5t-34.5 -89.5q0 -52 34.5 -87.5t85.5 -35.5t86 35.5t35 87.5q0 54 -35 89.5t-86 35.5zM1360 119q28 -60 68.5 -83.5
t115.5 -23.5v-12h-739v12q77 0 120 46.5t7 121.5l-387 815l188 418h21zM686 410l-379 -13q-28 -92 -28 -161q0 -54 24.5 -98t63 -70.5t82.5 -41t86 -14.5v-12h-590v8q129 0 237 228l281 589l6 -18q-109 -236 -152 -373l363 -12z" />
    <glyph glyph-name="AE" unicode="&#xc6;" horiz-adv-x="2062" 
d="M762 1380v13h502v-1393h-502v12q153 0 153 105v1157q0 106 -153 106zM1913 1014q-57 132 -124 206.5t-166 112t-257 47.5v13h563v-379h-16zM737 504l-383 -12q-78 -183 -78 -256q0 -54 24.5 -98t63 -70.5t82.5 -41t86 -14.5v-12h-589v8q67 0 122 57t115 171l512 987v-41
q-265 -531 -321 -654l360 -12zM1749 532q-50 86 -113.5 125.5t-156.5 47.5l-113 10v12l113 10q92 8 156 48.5t114 127.5h16v-381h-16zM1933 379h17v-379h-584v12q235 15 359.5 95t207.5 272z" />
    <glyph glyph-name="Ccedilla" unicode="&#xc7;" horiz-adv-x="1439" 
d="M942 61q128 0 228 53t163 130l8 -17q-77 -123 -207 -185t-286 -62q-29 0 -43 2l-94 -109q143 3 228 -52.5t85 -156.5q0 -105 -85.5 -172t-199.5 -67q-70 0 -138.5 30t-106.5 86l14 8q63 -57 145 -57q61 0 105.5 42.5t44.5 109.5q0 68 -64 112.5t-143 44.5l170 183
q-97 11 -191 45.5t-181 95t-152.5 140.5t-104.5 191t-39 238q0 149 45 272t116.5 203t165.5 136t187.5 80.5t186.5 27.5v-12q-299 -65 -299 -692q0 -127 16.5 -229t47 -171.5t70.5 -119t91 -77t103.5 -39.5t113.5 -12zM1333 1413h17v-498h-17q-118 400 -432 486v12
q244 -11 371 -94z" />
    <glyph glyph-name="Egrave" unicode="&#xc8;" horiz-adv-x="1378" 
d="M944 1495q-323 33 -524 234l176 174q65 -114 156.5 -220.5t191.5 -177.5v-10zM590 0h-502v12q154 0 154 105v1157q0 106 -154 106v13h502v-1393zM692 1393h541v-379h-16q-66 194 -179 272.5t-346 93.5v13zM805 705l-113 10v12l113 10q92 8 156 48.5t114 127.5h17v-381
h-17q-50 86 -113.5 125.5t-156.5 47.5zM692 0v12q235 15 360 95t208 272h16v-379h-584z" />
    <glyph glyph-name="Eacute" unicode="&#xc9;" horiz-adv-x="1378" 
d="M420 1495v10q100 71 191.5 177.5t156.5 220.5l176 -174q-201 -201 -524 -234zM590 0h-502v12q154 0 154 105v1157q0 106 -154 106v13h502v-1393zM692 1393h541v-379h-16q-66 194 -179 272.5t-346 93.5v13zM805 705l-113 10v12l113 10q92 8 156 48.5t114 127.5h17v-381
h-17q-50 86 -113.5 125.5t-156.5 47.5zM692 0v12q235 15 360 95t208 272h16v-379h-584z" />
    <glyph glyph-name="Ecircumflex" unicode="&#xca;" horiz-adv-x="1378" 
d="M682 1667q-143 -128 -348 -172l-6 12q237 174 317 371h74q83 -199 317 -371l-6 -12q-205 44 -348 172zM88 1380v13h502v-1393h-502v12q154 0 154 105v1157q0 106 -154 106zM1233 1014h-16q-66 194 -179 272.5t-346 93.5v13h541v-379zM805 737q92 8 156 48.5t114 127.5h17
v-381h-17q-50 86 -113.5 125.5t-156.5 47.5l-113 10v12zM1260 379h16v-379h-584v12q235 15 360 95t208 272z" />
    <glyph glyph-name="Edieresis" unicode="&#xcb;" horiz-adv-x="1378" 
d="M414 1530q-77 0 -126.5 46t-49.5 120q0 68 49 111.5t125 43.5q79 0 129.5 -43t50.5 -112q0 -74 -50.5 -120t-127.5 -46zM952 1530q-77 0 -126.5 46t-49.5 120q0 69 49.5 112t126.5 43t125.5 -43t48.5 -112q0 -75 -48.5 -120.5t-125.5 -45.5zM590 0h-502v12q154 0 154 105
v1157q0 106 -154 106v13h502v-1393zM692 1393h541v-379h-16q-66 194 -179 272.5t-346 93.5v13zM805 705l-113 10v12l113 10q92 8 156 48.5t114 127.5h17v-381h-17q-50 86 -113.5 125.5t-156.5 47.5zM692 0v12q235 15 360 95t208 272h16v-379h-584z" />
    <glyph glyph-name="Igrave" unicode="&#xcc;" horiz-adv-x="831" 
d="M678 1495q-323 33 -524 234l176 174q65 -114 156.5 -220.5t191.5 -177.5v-10zM88 0v12q154 0 154 105v1159q0 104 -154 104v13h655v-13q-153 0 -153 -104v-1159q0 -105 153 -105v-12h-655z" />
    <glyph glyph-name="Iacute" unicode="&#xcd;" horiz-adv-x="831" 
d="M154 1495v10q100 71 191.5 177.5t156.5 220.5l176 -174q-201 -201 -524 -234zM88 0v12q154 0 154 105v1159q0 104 -154 104v13h655v-13q-153 0 -153 -104v-1159q0 -105 153 -105v-12h-655z" />
    <glyph glyph-name="Icircumflex" unicode="&#xce;" horiz-adv-x="831" 
d="M453 1878q83 -199 317 -371l-6 -12q-205 44 -348 172q-143 -128 -348 -172l-7 12q238 175 318 371h74zM88 1380v13h655v-13q-153 0 -153 -104v-1159q0 -105 153 -105v-12h-655v12q154 0 154 105v1159q0 104 -154 104z" />
    <glyph glyph-name="Idieresis" unicode="&#xcf;" horiz-adv-x="831" 
d="M147 1530q-77 0 -126.5 46t-49.5 120q0 68 49 111.5t125 43.5q79 0 130 -43.5t51 -111.5q0 -74 -50.5 -120t-128.5 -46zM686 1530q-77 0 -126.5 46t-49.5 120q0 69 49.5 112t126.5 43t125.5 -43t48.5 -112q0 -75 -48.5 -120.5t-125.5 -45.5zM88 0v12q154 0 154 105v1159
q0 104 -154 104v13h655v-13q-153 0 -153 -104v-1159q0 -105 153 -105v-12h-655z" />
    <glyph glyph-name="Eth" unicode="&#xd0;" horiz-adv-x="1603" 
d="M897 702h-307v-702h-502v12q86 0 120 27t34 78v585h-154v52h154v520q0 51 -34 78.5t-120 27.5v13h502v-639h307v-52zM692 1393q389 0 599 -177t210 -514q0 -343 -210 -522.5t-599 -179.5v12q96 6 169.5 43.5t131.5 114.5t88.5 211t30.5 321q0 150 -21 265.5t-57 190.5
t-90 124.5t-115 71.5t-137 26v13z" />
    <glyph glyph-name="Ntilde" unicode="&#xd1;" horiz-adv-x="1595" 
d="M477 1524q-25 22 -41 60t-16 79q0 76 49 125t152 49q70 0 154.5 -28.5t161 -56.5t124.5 -28q42 0 64 18t22 48q0 26 -33 65h12q25 -22 41.5 -59.5t16.5 -73.5q0 -77 -48 -128.5t-153 -51.5q-56 0 -122 17.5t-116 39t-106.5 39t-95.5 17.5q-42 0 -64 -18t-22 -48
q0 -27 32 -65h-12zM1354 264v-264h-228l-856 1276q-39 59 -88 81.5t-129 22.5v13h547zM1358 1208l-8 -737l-17 23l-24 714q-2 72 -53.5 122t-147.5 50v13h451v-13q-95 0 -148 -51t-53 -121zM252 184l16 885l17 -25l16 -860q2 -72 53.5 -122t147.5 -50v-12h-451v12
q95 0 147 50.5t54 121.5z" />
    <glyph glyph-name="Ograve" unicode="&#xd2;" horiz-adv-x="1675" 
d="M1100 1495q-324 33 -525 234l177 174q65 -114 156.5 -220.5t191.5 -177.5v-10zM786 -20q-90 0 -185.5 30t-185.5 91.5t-160.5 146.5t-113.5 205t-43 256q0 112 30 212t81.5 175.5t119.5 136.5t145 99.5t156.5 59t155.5 21.5v-12q-62 -6 -110 -40.5t-89.5 -109.5t-64 -212
t-22.5 -330q0 -153 15.5 -274t41.5 -200t63 -133t77.5 -79t88.5 -31v-12zM889 -20v12q60 7 109.5 47t90.5 120.5t64 220.5t23 329q0 193 -22.5 330t-64.5 212t-90 109.5t-110 40.5v12q76 -1 155.5 -21.5t156.5 -59t145 -99.5t119.5 -136.5t81.5 -175.5t30 -212
q0 -136 -43 -256t-113.5 -205t-160.5 -146.5t-185.5 -91.5t-185.5 -30z" />
    <glyph glyph-name="Oacute" unicode="&#xd3;" horiz-adv-x="1675" 
d="M575 1495v10q100 71 192 177.5t157 220.5l176 -174q-201 -201 -525 -234zM786 -20q-90 0 -185.5 30t-185.5 91.5t-160.5 146.5t-113.5 205t-43 256q0 112 30 212t81.5 175.5t119.5 136.5t145 99.5t156.5 59t155.5 21.5v-12q-62 -6 -110 -40.5t-89.5 -109.5t-64 -212
t-22.5 -330q0 -153 15.5 -274t41.5 -200t63 -133t77.5 -79t88.5 -31v-12zM889 -20v12q60 7 109.5 47t90.5 120.5t64 220.5t23 329q0 193 -22.5 330t-64.5 212t-90 109.5t-110 40.5v12q76 -1 155.5 -21.5t156.5 -59t145 -99.5t119.5 -136.5t81.5 -175.5t30 -212
q0 -136 -43 -256t-113.5 -205t-160.5 -146.5t-185.5 -91.5t-185.5 -30z" />
    <glyph glyph-name="Ocircumflex" unicode="&#xd4;" horiz-adv-x="1675" 
d="M838 1667q-143 -128 -349 -172l-6 12q238 175 318 371h73q82 -198 318 -371l-6 -12q-205 44 -348 172zM98 709q0 112 30 212t81.5 175.5t119.5 136.5t145 99.5t156.5 59t155.5 21.5v-12q-62 -6 -110 -40.5t-89.5 -109.5t-64 -212t-22.5 -330q0 -153 15.5 -274t41.5 -200
t63 -133t77.5 -79t88.5 -31v-12q-90 0 -185.5 30t-185.5 91.5t-160.5 146.5t-113.5 205t-43 256zM889 1413q76 -1 155.5 -21.5t156.5 -59t145 -99.5t119.5 -136.5t81.5 -175.5t30 -212q0 -136 -43 -256t-113.5 -205t-160.5 -146.5t-185.5 -91.5t-185.5 -30v12q60 7 109.5 47
t90.5 120.5t64 220.5t23 329q0 193 -22.5 330t-64.5 212t-90 109.5t-110 40.5v12z" />
    <glyph glyph-name="Otilde" unicode="&#xd5;" horiz-adv-x="1675" 
d="M512 1524q-25 22 -41 60t-16 79q0 76 48.5 125t151.5 49q70 0 155 -28.5t161.5 -56.5t124.5 -28q42 0 64 18t22 48q0 26 -33 65h12q25 -22 41.5 -59.5t16.5 -73.5q0 -77 -48 -128.5t-153 -51.5q-56 0 -122 17.5t-116 39t-106.5 39t-95.5 17.5q-42 0 -64 -18t-22 -48
q0 -27 32 -65h-12zM786 -20q-90 0 -185.5 30t-185.5 91.5t-160.5 146.5t-113.5 205t-43 256q0 112 30 212t81.5 175.5t119.5 136.5t145 99.5t156.5 59t155.5 21.5v-12q-62 -6 -110 -40.5t-89.5 -109.5t-64 -212t-22.5 -330q0 -153 15.5 -274t41.5 -200t63 -133t77.5 -79
t88.5 -31v-12zM889 -20v12q60 7 109.5 47t90.5 120.5t64 220.5t23 329q0 193 -22.5 330t-64.5 212t-90 109.5t-110 40.5v12q76 -1 155.5 -21.5t156.5 -59t145 -99.5t119.5 -136.5t81.5 -175.5t30 -212q0 -136 -43 -256t-113.5 -205t-160.5 -146.5t-185.5 -91.5t-185.5 -30z
" />
    <glyph glyph-name="Odieresis" unicode="&#xd6;" horiz-adv-x="1675" 
d="M569 1530q-77 0 -126.5 46t-49.5 120q0 68 49 111.5t125 43.5q79 0 130 -43.5t51 -111.5q0 -74 -50.5 -120t-128.5 -46zM1108 1530q-77 0 -126.5 46t-49.5 120q0 69 49.5 112t126.5 43t125.5 -43t48.5 -112q0 -75 -48.5 -120.5t-125.5 -45.5zM786 -20q-90 0 -185.5 30
t-185.5 91.5t-160.5 146.5t-113.5 205t-43 256q0 112 30 212t81.5 175.5t119.5 136.5t145 99.5t156.5 59t155.5 21.5v-12q-62 -6 -110 -40.5t-89.5 -109.5t-64 -212t-22.5 -330q0 -153 15.5 -274t41.5 -200t63 -133t77.5 -79t88.5 -31v-12zM889 -20v12q60 7 109.5 47
t90.5 120.5t64 220.5t23 329q0 193 -22.5 330t-64.5 212t-90 109.5t-110 40.5v12q76 -1 155.5 -21.5t156.5 -59t145 -99.5t119.5 -136.5t81.5 -175.5t30 -212q0 -136 -43 -256t-113.5 -205t-160.5 -146.5t-185.5 -91.5t-185.5 -30z" />
    <glyph glyph-name="multiply" unicode="&#xd7;" horiz-adv-x="1003" 
d="M883 899l-344 -332l344 -331l-37 -37l-344 333l-346 -333l-35 37l344 331l-344 332l35 37l346 -334l344 334z" />
    <glyph glyph-name="Oslash" unicode="&#xd8;" horiz-adv-x="1675" 
d="M1360 1221q101 -94 159 -223.5t58 -288.5q0 -136 -43 -256t-113.5 -205t-160.5 -146.5t-185.5 -91.5t-185.5 -30v12q60 7 109.5 47t90.5 120.5t64 220.5t23 329q0 154 -17 290l-624 -677q35 -162 100.5 -241t150.5 -89v-12q-104 0 -214.5 40.5t-206.5 116.5l-146 -157
h-80l183 196q-103 98 -163.5 233.5t-60.5 299.5q0 112 30 212t81.5 175.5t119.5 136.5t145 99.5t156.5 59t155.5 21.5v-12q-62 -6 -110 -40.5t-89.5 -109.5t-64 -212t-22.5 -330q0 -171 20 -318l627 678q-60 310 -258 332v12q107 0 220.5 -41t209.5 -117l147 158h72z" />
    <glyph glyph-name="Ugrave" unicode="&#xd9;" horiz-adv-x="1523" 
d="M1036 1495q-323 33 -524 234l176 174q65 -114 156.5 -220.5t191.5 -177.5v-10zM211 389v887q0 104 -154 104v13h656v-13q-154 0 -154 -104v-893q0 -103 19 -185.5t64 -140t112 -65.5v-12q-124 0 -220.5 23.5t-156 61.5t-98 92.5t-53.5 110.5t-15 121zM1286 1124v-735
q0 -79 -24.5 -150t-74 -130t-135 -94t-196.5 -35v12q96 2 172 35.5t122.5 88.5t70.5 123t24 144v741q0 105 -54.5 180.5t-150.5 75.5v13h451v-13q-96 0 -150.5 -76t-54.5 -180z" />
    <glyph glyph-name="Uacute" unicode="&#xda;" horiz-adv-x="1523" 
d="M512 1495v10q100 71 191.5 177.5t156.5 220.5l176 -174q-201 -201 -524 -234zM211 389v887q0 104 -154 104v13h656v-13q-154 0 -154 -104v-893q0 -103 19 -185.5t64 -140t112 -65.5v-12q-124 0 -220.5 23.5t-156 61.5t-98 92.5t-53.5 110.5t-15 121zM1286 1124v-735
q0 -79 -24.5 -150t-74 -130t-135 -94t-196.5 -35v12q96 2 172 35.5t122.5 88.5t70.5 123t24 144v741q0 105 -54.5 180.5t-150.5 75.5v13h451v-13q-96 0 -150.5 -76t-54.5 -180z" />
    <glyph glyph-name="Ucircumflex" unicode="&#xdb;" horiz-adv-x="1523" 
d="M774 1667q-143 -128 -348 -172l-6 12q237 174 317 371h74q83 -199 317 -371l-6 -12q-205 44 -348 172zM559 383q0 -103 19 -185.5t64 -140t112 -65.5v-12q-124 0 -220.5 23.5t-156 61.5t-98 92.5t-53.5 110.5t-15 121v887q0 104 -154 104v13h656v-13q-154 0 -154 -104
v-893zM1040 1393h451v-13q-96 0 -150.5 -76t-54.5 -180v-735q0 -79 -24.5 -150t-74 -130t-135 -94t-196.5 -35v12q96 2 172 35.5t122.5 88.5t70.5 123t24 144v741q0 105 -54.5 180.5t-150.5 75.5v13z" />
    <glyph glyph-name="Udieresis" unicode="&#xdc;" horiz-adv-x="1523" 
d="M506 1530q-77 0 -126.5 46t-49.5 120q0 68 49 111.5t125 43.5q79 0 129.5 -43t50.5 -112q0 -74 -50.5 -120t-127.5 -46zM1044 1530q-77 0 -126.5 46t-49.5 120q0 69 49.5 112t126.5 43t126 -43t49 -112q0 -74 -49 -120t-126 -46zM211 389v887q0 104 -154 104v13h656v-13
q-154 0 -154 -104v-893q0 -103 19 -185.5t64 -140t112 -65.5v-12q-124 0 -220.5 23.5t-156 61.5t-98 92.5t-53.5 110.5t-15 121zM1286 1124v-735q0 -79 -24.5 -150t-74 -130t-135 -94t-196.5 -35v12q96 2 172 35.5t122.5 88.5t70.5 123t24 144v741q0 105 -54.5 180.5
t-150.5 75.5v13h451v-13q-96 0 -150.5 -76t-54.5 -180z" />
    <glyph glyph-name="Yacute" unicode="&#xdd;" horiz-adv-x="1413" 
d="M782 1903l176 -174q-201 -201 -524 -234v10q100 71 191.5 177.5t156.5 220.5zM889 117q0 -105 153 -105v-12h-655v12q154 0 154 105v375l-404 788q-26 51 -56.5 75.5t-86.5 24.5v13h641v-13q-43 0 -68.5 -18.5t-25.5 -52.5q0 -27 23 -76t146 -288q104 -203 179 -349v-479
zM831 1393h601v-13q-46 0 -77 -25t-61 -73l-305 -530l-8 14q45 88 65 131t37 110t17 138q0 102 -82 168.5t-187 66.5v13z" />
    <glyph glyph-name="Thorn" unicode="&#xde;" horiz-adv-x="1392" 
d="M88 0v12q154 0 154 105v1159q0 104 -154 104v13h502v-1276q0 -105 153 -105v-12h-655zM692 287v12q91 0 153.5 57t91 153t28.5 224q0 188 -68 295t-205 107v12q324 0 478.5 -94.5t154.5 -319.5q0 -232 -161 -339t-472 -107z" />
    <glyph glyph-name="germandbls" unicode="&#xdf;" horiz-adv-x="1531" 
d="M539 117q0 -105 153 -105v-12h-645v12q84 0 119 30t35 75v876h-133l22 31h111v12q0 99 31.5 179t80 130.5t114.5 86t128 52t127 21.5v-12q-49 -9 -78.5 -44.5t-47 -129.5t-17.5 -256v-946zM913 850q252 -37 394.5 -156.5t142.5 -300.5q0 -132 -57.5 -227.5t-150 -140.5
t-206.5 -45v12q53 20 69.5 97.5t16.5 281.5q0 182 -95.5 309.5t-278.5 155.5v12q104 28 163.5 123t59.5 211q0 124 -62 214.5t-145 96.5v12q242 -6 378 -95t136 -220q0 -123 -101.5 -215t-263.5 -125zM989 252q-50 0 -80 -32.5t-30 -88.5q0 -58 20.5 -95.5t54.5 -43.5v-12
q-110 8 -177.5 63t-67.5 139q0 68 42.5 110t112.5 42q57 0 91 -22.5t34 -59.5z" />
    <glyph glyph-name="agrave" unicode="&#xe0;" horiz-adv-x="1259" 
d="M840 1118q-304 117 -447 361l215 123q33 -127 95 -252.5t141 -221.5zM326 659q-82 0 -130.5 47.5t-48.5 114.5q0 41 19.5 77.5t61.5 68.5t116.5 52.5t175.5 24.5v-12q-60 -9 -95.5 -51t-35.5 -98q0 -55 35.5 -87.5t97.5 -37.5q-23 -43 -79 -71t-117 -28zM979 -20
q-126 0 -182 51.5t-56 179.5v627q0 80 -34 132t-105 62v12q252 -9 363.5 -107.5t111.5 -301.5v-498q0 -84 58 -84q48 0 98 92h12q-24 -81 -96.5 -123t-169.5 -42zM354 -20q-132 0 -210.5 70t-77.5 192q1 131 109 204.5t284 73.5h221v-12h-62q-106 0 -161.5 -61.5
t-55.5 -161.5q0 -199 129 -199q71 0 150 72v-13q-144 -165 -326 -165z" />
    <glyph glyph-name="aacute" unicode="&#xe1;" horiz-adv-x="1259" 
d="M397 1118l-4 10q79 96 141 221.5t95 252.5l215 -123q-143 -244 -447 -361zM326 659q-82 0 -130.5 47.5t-48.5 114.5q0 41 19.5 77.5t61.5 68.5t116.5 52.5t175.5 24.5v-12q-60 -9 -95.5 -51t-35.5 -98q0 -55 35.5 -87.5t97.5 -37.5q-23 -43 -79 -71t-117 -28zM979 -20
q-126 0 -182 51.5t-56 179.5v627q0 80 -34 132t-105 62v12q252 -9 363.5 -107.5t111.5 -301.5v-498q0 -84 58 -84q48 0 98 92h12q-24 -81 -96.5 -123t-169.5 -42zM354 -20q-132 0 -210.5 70t-77.5 192q1 131 109 204.5t284 73.5h221v-12h-62q-106 0 -161.5 -61.5
t-55.5 -161.5q0 -199 129 -199q71 0 150 72v-13q-144 -165 -326 -165z" />
    <glyph glyph-name="acircumflex" unicode="&#xe2;" horiz-adv-x="1259" 
d="M614 1317q-148 -129 -389 -176l-6 12q241 177 359 418h73q120 -243 359 -418l-6 -12q-106 18 -209.5 63.5t-180.5 112.5zM326 659q-82 0 -130.5 47.5t-48.5 114.5q0 41 19.5 77.5t61.5 68.5t116.5 52.5t175.5 24.5v-12q-60 -9 -95.5 -51t-35.5 -98q0 -55 35.5 -87.5
t97.5 -37.5q-23 -43 -79 -71t-117 -28zM1233 145h12q-24 -81 -96.5 -123t-169.5 -42q-126 0 -182 51.5t-56 179.5v627q0 80 -34 132t-105 62v12q252 -9 363.5 -107.5t111.5 -301.5v-498q0 -84 58 -84q48 0 98 92zM66 242q1 131 109 204.5t284 73.5h221v-12h-62
q-106 0 -161.5 -61.5t-55.5 -161.5q0 -199 129 -199q71 0 150 72v-13q-144 -165 -326 -165q-132 0 -210.5 70t-77.5 192z" />
    <glyph glyph-name="atilde" unicode="&#xe3;" horiz-adv-x="1259" 
d="M293 1186q-25 22 -41 60t-16 79q0 76 48.5 125t151.5 49q70 0 155 -28.5t161.5 -56.5t124.5 -28q42 0 64 18t22 48q0 27 -33 66h12q25 -22 41 -59.5t16 -74.5q0 -78 -48 -129t-152 -51q-56 0 -122 17.5t-116 39t-107 39t-96 17.5q-42 0 -64 -18t-22 -48q0 -26 33 -65h-12
zM326 659q-82 0 -130.5 47.5t-48.5 114.5q0 41 19.5 77.5t61.5 68.5t116.5 52.5t175.5 24.5v-12q-60 -9 -95.5 -51t-35.5 -98q0 -55 35.5 -87.5t97.5 -37.5q-23 -43 -79 -71t-117 -28zM979 -20q-126 0 -182 51.5t-56 179.5v627q0 80 -34 132t-105 62v12q252 -9 363.5 -107.5
t111.5 -301.5v-498q0 -84 58 -84q48 0 98 92h12q-24 -81 -96.5 -123t-169.5 -42zM354 -20q-132 0 -210.5 70t-77.5 192q1 131 109 204.5t284 73.5h221v-12h-62q-106 0 -161.5 -61.5t-55.5 -161.5q0 -199 129 -199q71 0 150 72v-13q-144 -165 -326 -165z" />
    <glyph glyph-name="adieresis" unicode="&#xe4;" horiz-adv-x="1259" 
d="M350 1186q-77 0 -126.5 46t-49.5 120q0 68 49 111.5t125 43.5q79 0 129.5 -43t50.5 -112q0 -74 -50.5 -120t-127.5 -46zM889 1186q-77 0 -126.5 46t-49.5 120q0 69 49.5 112t126.5 43t125.5 -43t48.5 -112q0 -75 -48.5 -120.5t-125.5 -45.5zM326 659q-82 0 -130.5 47.5
t-48.5 114.5q0 41 19.5 77.5t61.5 68.5t116.5 52.5t175.5 24.5v-12q-60 -9 -95.5 -51t-35.5 -98q0 -55 35.5 -87.5t97.5 -37.5q-23 -43 -79 -71t-117 -28zM979 -20q-126 0 -182 51.5t-56 179.5v627q0 80 -34 132t-105 62v12q252 -9 363.5 -107.5t111.5 -301.5v-498
q0 -84 58 -84q48 0 98 92h12q-24 -81 -96.5 -123t-169.5 -42zM354 -20q-132 0 -210.5 70t-77.5 192q1 131 109 204.5t284 73.5h221v-12h-62q-106 0 -161.5 -61.5t-55.5 -161.5q0 -199 129 -199q71 0 150 72v-13q-144 -165 -326 -165z" />
    <glyph glyph-name="aring" unicode="&#xe5;" horiz-adv-x="1259" 
d="M618 1141q-88 0 -149 60.5t-61 148.5t61 148.5t149 60.5t149.5 -60.5t61.5 -148.5t-61.5 -148.5t-149.5 -60.5zM618 1227q51 0 86 35.5t35 87.5q0 54 -35 89.5t-86 35.5t-85.5 -35.5t-34.5 -89.5q0 -52 34.5 -87.5t85.5 -35.5zM326 659q-82 0 -130.5 47.5t-48.5 114.5
q0 41 19.5 77.5t61.5 68.5t116.5 52.5t175.5 24.5v-12q-60 -9 -95.5 -51t-35.5 -98q0 -55 35.5 -87.5t97.5 -37.5q-23 -43 -79 -71t-117 -28zM979 -20q-126 0 -182 51.5t-56 179.5v627q0 80 -34 132t-105 62v12q252 -9 363.5 -107.5t111.5 -301.5v-498q0 -84 58 -84
q48 0 98 92h12q-24 -81 -96.5 -123t-169.5 -42zM354 -20q-132 0 -210.5 70t-77.5 192q1 131 109 204.5t284 73.5h221v-12h-62q-106 0 -161.5 -61.5t-55.5 -161.5q0 -199 129 -199q71 0 150 72v-13q-144 -165 -326 -165z" />
    <glyph glyph-name="ae" unicode="&#xe6;" horiz-adv-x="1808" 
d="M326 659q-81 0 -130 47t-49 111q0 95 90.5 156.5t282.5 70.5v-12q-60 -9 -95.5 -51t-35.5 -96q0 -56 35.5 -89t97.5 -38q-23 -43 -79 -71t-117 -28zM1090 524q0 -216 86.5 -336t226.5 -120q87 0 157 25.5t142 82.5v-12q-73 -93 -196 -138.5t-238 -45.5q-100 0 -193.5 36
t-168 102t-120 169.5t-45.5 228.5v322q0 80 -34 132t-105 62v12q235 -9 350 -96q131 96 291 96v-12q-62 -7 -94 -53t-45.5 -150.5t-13.5 -304.5zM1325 1044q97 0 176 -32t126.5 -83.5t73 -112t25.5 -120.5q0 -54 -10 -106h-514v12q137 0 196.5 51t59.5 178q0 79 -34 135.5
t-99 65.5v12zM551 76q32 -1 58.5 8t52 32.5t39.5 39.5t41 52q7 9 10 13l4 -10q-56 -97 -157 -164t-245 -67q-132 0 -210.5 70t-77.5 192q1 131 109 204.5t284 73.5h221v-12h-62q-106 0 -161.5 -61.5t-55.5 -161.5q0 -94 33.5 -149.5t116.5 -59.5z" />
    <glyph glyph-name="ccedilla" unicode="&#xe7;" horiz-adv-x="1132" 
d="M768 68q87 0 157 25.5t142 82.5v-12q-73 -93 -196 -138.5t-238 -45.5h-12l-95 -107q143 3 228.5 -52.5t85.5 -156.5q0 -105 -85.5 -172t-199.5 -67q-71 0 -139.5 30t-106.5 86l15 8q63 -57 145 -57q61 0 105 42.5t44 109.5q0 69 -63.5 113t-142.5 44l168 181
q-94 10 -181 49.5t-157.5 105t-113 164.5t-42.5 215q0 124 48 226.5t124.5 166.5t168 99t183.5 36v-12q-63 -7 -99.5 -51.5t-55.5 -154t-19 -302.5q0 -213 94.5 -334.5t237.5 -121.5zM682 745q41 17 69.5 62.5t28.5 87.5q0 119 -88 135v14q188 0 280.5 -67t92.5 -164
q0 -85 -55 -141t-150 -56q-71 0 -119.5 39t-58.5 90z" />
    <glyph glyph-name="egrave" unicode="&#xe8;" horiz-adv-x="1153" 
d="M799 1118q-304 117 -447 361l215 123q33 -127 95 -252.5t141 -221.5zM612 -20q-79 0 -155 22.5t-143 67.5t-118 108t-80.5 150.5t-29.5 187.5q0 124 44.5 226.5t117 166.5t160.5 99t180 36v-12q-62 -7 -94.5 -53t-46 -150.5t-13.5 -304.5q0 -216 87 -336t227 -120
q87 0 157 25.5t142 82.5v-12q-73 -93 -196 -138.5t-239 -45.5zM547 590v12q137 0 196.5 51t59.5 178q0 79 -34 135.5t-99 65.5v12q97 0 176 -32t126.5 -83.5t73 -112t25.5 -120.5q0 -54 -10 -106h-514z" />
    <glyph glyph-name="eacute" unicode="&#xe9;" horiz-adv-x="1153" 
d="M356 1118l-4 10q79 96 141 221.5t95 252.5l215 -123q-143 -244 -447 -361zM612 -20q-79 0 -155 22.5t-143 67.5t-118 108t-80.5 150.5t-29.5 187.5q0 124 44.5 226.5t117 166.5t160.5 99t180 36v-12q-62 -7 -94.5 -53t-46 -150.5t-13.5 -304.5q0 -216 87 -336t227 -120
q87 0 157 25.5t142 82.5v-12q-73 -93 -196 -138.5t-239 -45.5zM547 590v12q137 0 196.5 51t59.5 178q0 79 -34 135.5t-99 65.5v12q97 0 176 -32t126.5 -83.5t73 -112t25.5 -120.5q0 -54 -10 -106h-514z" />
    <glyph glyph-name="ecircumflex" unicode="&#xea;" horiz-adv-x="1153" 
d="M573 1317q-148 -129 -389 -176l-6 12q241 177 359 418h73q120 -243 359 -418l-6 -12q-106 18 -209.5 63.5t-180.5 112.5zM434 524q0 -216 87 -336t227 -120q87 0 157 25.5t142 82.5v-12q-73 -93 -196 -138.5t-239 -45.5q-79 0 -155 22.5t-143 67.5t-118 108t-80.5 150.5
t-29.5 187.5q0 124 44.5 226.5t117 166.5t160.5 99t180 36v-12q-62 -7 -94.5 -53t-46 -150.5t-13.5 -304.5zM670 1044q97 0 176 -32t126.5 -83.5t73 -112t25.5 -120.5q0 -54 -10 -106h-514v12q137 0 196.5 51t59.5 178q0 79 -34 135.5t-99 65.5v12z" />
    <glyph glyph-name="edieresis" unicode="&#xeb;" horiz-adv-x="1153" 
d="M309 1186q-77 0 -126.5 46t-49.5 120q0 68 49 111.5t125 43.5q79 0 129.5 -43t50.5 -112q0 -74 -50.5 -120t-127.5 -46zM848 1186q-77 0 -126.5 46t-49.5 120q0 69 49.5 112t126.5 43t125.5 -43t48.5 -112q0 -75 -48.5 -120.5t-125.5 -45.5zM612 -20q-79 0 -155 22.5
t-143 67.5t-118 108t-80.5 150.5t-29.5 187.5q0 124 44.5 226.5t117 166.5t160.5 99t180 36v-12q-62 -7 -94.5 -53t-46 -150.5t-13.5 -304.5q0 -216 87 -336t227 -120q87 0 157 25.5t142 82.5v-12q-73 -93 -196 -138.5t-239 -45.5zM547 590v12q137 0 196.5 51t59.5 178
q0 79 -34 135.5t-99 65.5v12q97 0 176 -32t126.5 -83.5t73 -112t25.5 -120.5q0 -54 -10 -106h-514z" />
    <glyph glyph-name="igrave" unicode="&#xec;" horiz-adv-x="733" 
d="M588 1118q-304 117 -447 361l215 123q33 -127 95 -252.5t141 -221.5zM53 954v13q293 0 490 80v-930q0 -105 153 -105v-12h-645v12q84 0 119 30t35 75v729q0 57 -33.5 82.5t-118.5 25.5z" />
    <glyph glyph-name="iacute" unicode="&#xed;" horiz-adv-x="733" 
d="M145 1118l-4 10q79 96 141 221.5t95 252.5l215 -123q-143 -244 -447 -361zM53 954v13q293 0 490 80v-930q0 -105 153 -105v-12h-645v12q84 0 119 30t35 75v729q0 57 -33.5 82.5t-118.5 25.5z" />
    <glyph glyph-name="icircumflex" unicode="&#xee;" horiz-adv-x="733" 
d="M399 1571q120 -243 359 -418l-6 -12q-106 18 -209.5 63.5t-180.5 112.5q-148 -129 -389 -176l-6 12q241 177 359 418h73zM543 117q0 -105 153 -105v-12h-645v12q84 0 119 30t35 75v729q0 57 -33.5 82.5t-118.5 25.5v13q293 0 490 80v-930z" />
    <glyph glyph-name="idieresis" unicode="&#xef;" horiz-adv-x="733" 
d="M119 1186q-77 0 -126.5 46t-49.5 120q0 68 49 111.5t125 43.5q79 0 129.5 -43t50.5 -112q0 -74 -50.5 -120t-127.5 -46zM616 1186q-77 0 -126.5 46t-49.5 120q0 69 49.5 112t126.5 43t126 -43t49 -112q0 -74 -49 -120t-126 -46zM53 954v13q293 0 490 80v-930
q0 -105 153 -105v-12h-645v12q84 0 119 30t35 75v729q0 57 -33.5 82.5t-118.5 25.5z" />
    <glyph glyph-name="eth" unicode="&#xf0;" horiz-adv-x="1282" 
d="M727 1329q214 -143 338.5 -351.5t124.5 -438.5q0 -158 -56 -280.5t-169 -197t-269 -81.5v12q89 22 123.5 163t32.5 427q-1 180 -65.5 361t-174.5 319l-239 -138l-21 37l234 131q-126 145 -275 199l6 14q200 -46 373 -153l176 100l23 -31zM88 510q0 113 41 213.5
t108 169.5t155.5 109t182.5 40q63 0 119 -20v-12q-12 2 -35 2q-42 0 -76 -16.5t-57.5 -43.5t-41 -69t-27.5 -86.5t-15.5 -103t-7.5 -110.5t-2 -118q0 -177 47.5 -311t134.5 -162v-12q-264 12 -395 151t-131 379z" />
    <glyph glyph-name="ntilde" unicode="&#xf1;" horiz-adv-x="1437" 
d="M393 1186q-25 22 -41 60t-16 79q0 76 49 125t152 49q70 0 154.5 -28.5t161 -56.5t124.5 -28q42 0 64 18t22 48q0 27 -33 66h12q25 -22 41.5 -60t16.5 -74q0 -77 -48 -128.5t-153 -51.5q-56 0 -122 17.5t-116 39t-106.5 39t-95.5 17.5q-42 0 -64 -18t-22 -48q0 -26 33 -65
h-13zM49 0v12q84 0 119 30t35 75v727q0 57 -33.5 82.5t-118.5 25.5v13q296 0 490 79v-927q0 -105 153 -105v-12h-645zM770 0v12q83 0 117.5 30t34.5 75v639q0 85 -42.5 129.5t-119.5 44.5q-86 0 -156 -64v13q44 68 137.5 116.5t202.5 48.5q145 0 230.5 -71t85.5 -217v-639
q0 -105 153 -105v-12h-643z" />
    <glyph glyph-name="ograve" unicode="&#xf2;" horiz-adv-x="1271" 
d="M858 1118q-303 116 -446 361l215 123q33 -128 94.5 -253.5t140.5 -220.5zM596 1044v-12q-63 -7 -96.5 -52.5t-49.5 -154t-16 -309.5q0 -195 15.5 -305.5t50 -161.5t96.5 -57v-12q-72 0 -144 22.5t-137.5 68t-116.5 108t-81.5 150t-30.5 187.5t30 186.5t80.5 148
t116.5 105.5t138 65.5t145 22.5zM678 1044q72 0 144 -21.5t137.5 -65.5t116 -105.5t80.5 -148.5t30 -187q0 -123 -46 -227t-120 -170t-163 -102.5t-179 -36.5v12q91 9 125.5 122.5t34.5 401.5q0 202 -16 311t-49 154t-95 51v12z" />
    <glyph glyph-name="oacute" unicode="&#xf3;" horiz-adv-x="1271" 
d="M416 1118l-4 10q79 95 140.5 220.5t94.5 253.5l215 -123q-143 -245 -446 -361zM596 1044v-12q-63 -7 -96.5 -52.5t-49.5 -154t-16 -309.5q0 -195 15.5 -305.5t50 -161.5t96.5 -57v-12q-72 0 -144 22.5t-137.5 68t-116.5 108t-81.5 150t-30.5 187.5t30 186.5t80.5 148
t116.5 105.5t138 65.5t145 22.5zM678 1044q72 0 144 -21.5t137.5 -65.5t116 -105.5t80.5 -148.5t30 -187q0 -123 -46 -227t-120 -170t-163 -102.5t-179 -36.5v12q91 9 125.5 122.5t34.5 401.5q0 202 -16 311t-49 154t-95 51v12z" />
    <glyph glyph-name="ocircumflex" unicode="&#xf4;" horiz-adv-x="1271" 
d="M633 1317q-148 -129 -389 -176l-6 12q240 176 358 418h74q120 -244 358 -418l-6 -12q-106 18 -209 63.5t-180 112.5zM86 516q0 100 30 186.5t80.5 148t116.5 105.5t138 65.5t145 22.5v-12q-63 -7 -96.5 -52.5t-49.5 -154t-16 -309.5q0 -195 15.5 -305.5t50 -161.5
t96.5 -57v-12q-72 0 -144 22.5t-137.5 68t-116.5 108t-81.5 150t-30.5 187.5zM678 1044q72 0 144 -21.5t137.5 -65.5t116 -105.5t80.5 -148.5t30 -187q0 -123 -46 -227t-120 -170t-163 -102.5t-179 -36.5v12q91 9 125.5 122.5t34.5 401.5q0 202 -16 311t-49 154t-95 51v12z
" />
    <glyph glyph-name="otilde" unicode="&#xf5;" horiz-adv-x="1271" 
d="M311 1186q-25 22 -41 60t-16 79q0 76 49 125t152 49q70 0 154.5 -28.5t161 -56.5t124.5 -28q42 0 64 18t22 48q0 27 -33 66h13q25 -22 41 -59.5t16 -74.5q0 -77 -48 -128.5t-153 -51.5q-56 0 -122 17.5t-116 39t-106.5 39t-95.5 17.5q-42 0 -64 -18t-22 -48q0 -26 33 -65
h-13zM596 1044v-12q-63 -7 -96.5 -52.5t-49.5 -154t-16 -309.5q0 -195 15.5 -305.5t50 -161.5t96.5 -57v-12q-72 0 -144 22.5t-137.5 68t-116.5 108t-81.5 150t-30.5 187.5t30 186.5t80.5 148t116.5 105.5t138 65.5t145 22.5zM678 1044q72 0 144 -21.5t137.5 -65.5
t116 -105.5t80.5 -148.5t30 -187q0 -123 -46 -227t-120 -170t-163 -102.5t-179 -36.5v12q91 9 125.5 122.5t34.5 401.5q0 202 -16 311t-49 154t-95 51v12z" />
    <glyph glyph-name="odieresis" unicode="&#xf6;" horiz-adv-x="1271" 
d="M369 1186q-77 0 -126.5 46t-49.5 120q0 68 49 111.5t125 43.5q79 0 129.5 -43t50.5 -112q0 -74 -50.5 -120t-127.5 -46zM907 1186q-77 0 -126.5 46t-49.5 120q0 69 49.5 112t126.5 43t125.5 -43t48.5 -112q0 -75 -48.5 -120.5t-125.5 -45.5zM596 1044v-12
q-63 -7 -96.5 -52.5t-49.5 -154t-16 -309.5q0 -195 15.5 -305.5t50 -161.5t96.5 -57v-12q-72 0 -144 22.5t-137.5 68t-116.5 108t-81.5 150t-30.5 187.5t30 186.5t80.5 148t116.5 105.5t138 65.5t145 22.5zM678 1044q72 0 144 -21.5t137.5 -65.5t116 -105.5t80.5 -148.5
t30 -187q0 -123 -46 -227t-120 -170t-163 -102.5t-179 -36.5v12q91 9 125.5 122.5t34.5 401.5q0 202 -16 311t-49 154t-95 51v12z" />
    <glyph glyph-name="divide" unicode="&#xf7;" horiz-adv-x="1167" 
d="M586 850q-32 0 -52 18.5t-20 49.5t20 49t52 18q31 0 50 -18t19 -49t-19 -49.5t-50 -18.5zM143 567v51h881v-51h-881zM586 201q-32 0 -52 18t-20 49t20 49.5t52 18.5q31 0 50 -18.5t19 -49.5t-19 -49t-50 -18z" />
    <glyph glyph-name="oslash" unicode="&#xf8;" horiz-adv-x="1271" 
d="M1186 1044l-148 -151q148 -148 148 -377q0 -123 -46 -227t-120 -170t-163 -102.5t-179 -36.5v12q91 9 125.5 122.5t34.5 401.5q0 119 -4 168l-392 -403q12 -151 48 -216t106 -73v-12q-85 0 -171 31.5t-155 90.5l-120 -122h-64l152 155q-152 152 -152 381q0 100 30 186.5
t80.5 148t116.5 105.5t138 65.5t145 22.5v-12q-63 -7 -96.5 -52.5t-49.5 -154t-16 -309.5q0 -72 4 -174l393 403q-8 106 -27 167.5t-48.5 88t-77.5 31.5v12q184 0 328 -120l116 120h64z" />
    <glyph glyph-name="ugrave" unicode="&#xf9;" horiz-adv-x="1398" 
d="M922 1118q-304 117 -447 361l215 123q33 -127 95 -252.5t141 -221.5zM518 1044v-776q0 -88 33 -131t108 -43q81 0 142 64v-13q-39 -72 -120 -118.5t-198 -46.5q-144 0 -223.5 70.5t-79.5 217.5v576q0 57 -33 82.5t-118 25.5v13q295 0 489 79zM1200 1044v-907
q0 -84 55 -84q49 0 99 92h12q-24 -82 -98.5 -123.5t-180.5 -41.5t-165.5 54.5t-59.5 145.5v664q0 57 -32 82.5t-113 25.5v13q139 0 247 17.5t236 61.5z" />
    <glyph glyph-name="uacute" unicode="&#xfa;" horiz-adv-x="1398" 
d="M479 1118l-4 10q79 96 141 221.5t95 252.5l215 -123q-143 -244 -447 -361zM518 1044v-776q0 -88 33 -131t108 -43q81 0 142 64v-13q-39 -72 -120 -118.5t-198 -46.5q-144 0 -223.5 70.5t-79.5 217.5v576q0 57 -33 82.5t-118 25.5v13q295 0 489 79zM1200 1044v-907
q0 -84 55 -84q49 0 99 92h12q-24 -82 -98.5 -123.5t-180.5 -41.5t-165.5 54.5t-59.5 145.5v664q0 57 -32 82.5t-113 25.5v13q139 0 247 17.5t236 61.5z" />
    <glyph glyph-name="ucircumflex" unicode="&#xfb;" horiz-adv-x="1398" 
d="M696 1317q-148 -129 -389 -176l-6 12q240 176 358 418h74q120 -243 359 -418l-7 -12q-106 18 -209 63.5t-180 112.5zM659 94q81 0 142 64v-13q-39 -72 -120 -118.5t-198 -46.5q-144 0 -223.5 70.5t-79.5 217.5v576q0 57 -33 82.5t-118 25.5v13q295 0 489 79v-776
q0 -88 33 -131t108 -43zM1354 145h12q-24 -82 -98.5 -123.5t-180.5 -41.5t-165.5 54.5t-59.5 145.5v664q0 57 -32 82.5t-113 25.5v13q139 0 247 17.5t236 61.5v-907q0 -84 55 -84q49 0 99 92z" />
    <glyph glyph-name="udieresis" unicode="&#xfc;" horiz-adv-x="1398" 
d="M432 1186q-77 0 -126.5 46t-49.5 120q0 68 49 111.5t125 43.5q79 0 129.5 -43t50.5 -112q0 -74 -50.5 -120t-127.5 -46zM971 1186q-77 0 -126.5 46t-49.5 120q0 69 49.5 112t126.5 43t125.5 -43t48.5 -112q0 -75 -48.5 -120.5t-125.5 -45.5zM518 1044v-776q0 -88 33 -131
t108 -43q81 0 142 64v-13q-39 -72 -120 -118.5t-198 -46.5q-144 0 -223.5 70.5t-79.5 217.5v576q0 57 -33 82.5t-118 25.5v13q295 0 489 79zM1200 1044v-907q0 -84 55 -84q49 0 99 92h12q-24 -82 -98.5 -123.5t-180.5 -41.5t-165.5 54.5t-59.5 145.5v664q0 57 -32 82.5
t-113 25.5v13q139 0 247 17.5t236 61.5z" />
    <glyph glyph-name="yacute" unicode="&#xfd;" horiz-adv-x="1169" 
d="M365 1118l-5 10q79 96 141 221.5t95 252.5l215 -123q-143 -245 -446 -361zM578 0l-476 940q-33 72 -112 72v12h573v-12q-54 0 -72.5 -33.5t7.5 -87.5l268 -559l-176 -332h-12zM864 514l-12 18q57 107 57 265q0 92 -53 153.5t-156 61.5v12h510v-12q-49 0 -75.5 -21
t-57.5 -76zM193 -512q-84 0 -132.5 51t-48.5 131q0 66 49 118t132 75q-9 -27 -9 -51q-2 -60 30.5 -99t90.5 -39q51 0 96.5 49t110.5 158h14q-13 -24 -36 -68.5t-35.5 -67t-33 -59.5t-34 -56.5t-33.5 -46.5t-36.5 -41t-37 -28t-42.5 -20t-45 -6z" />
    <glyph glyph-name="thorn" unicode="&#xfe;" horiz-adv-x="1372" 
d="M160 -512v1817q0 57 -33.5 82.5t-118.5 25.5v12q142 0 251.5 18t238.5 62v-1816q0 -58 33 -83.5t118 -25.5v-12q-142 0 -251 -18t-238 -62zM858 -20q-86 0 -173 49.5t-126 115.5v13q94 -72 172 -72q32 0 58 9.5t53 38t45.5 75t30.5 126.5t12 187q0 108 -11.5 186t-29 122
t-45 69.5t-53 33t-60.5 7.5q-102 0 -172 -76v17q39 66 126 114.5t173 48.5q63 0 120 -14.5t113 -52t96.5 -95t65.5 -150t25 -210.5q0 -124 -25.5 -220.5t-66 -156t-97 -97.5t-113 -53t-118.5 -15z" />
    <glyph glyph-name="ydieresis" unicode="&#xff;" horiz-adv-x="1169" 
d="M317 1186q-77 0 -126.5 46t-49.5 120q0 68 49 111.5t125 43.5q79 0 130 -43.5t51 -111.5q0 -74 -50.5 -120t-128.5 -46zM856 1186q-77 0 -126.5 46t-49.5 120q0 69 49.5 112t126.5 43t125.5 -43t48.5 -112q0 -75 -48.5 -120.5t-125.5 -45.5zM578 0l-476 940
q-33 72 -112 72v12h573v-12q-54 0 -72.5 -33.5t7.5 -87.5l268 -559l-176 -332h-12zM864 514l-12 18q57 107 57 265q0 92 -53 153.5t-156 61.5v12h510v-12q-49 0 -75.5 -21t-57.5 -76zM193 -512q-84 0 -132.5 51t-48.5 131q0 66 49 118t132 75q-9 -27 -9 -51q-2 -60 30.5 -99
t90.5 -39q51 0 96.5 49t110.5 158h14q-13 -24 -36 -68.5t-35.5 -67t-33 -59.5t-34 -56.5t-33.5 -46.5t-36.5 -41t-37 -28t-42.5 -20t-45 -6z" />
    <glyph glyph-name="Amacron" unicode="&#x100;" horiz-adv-x="1486" 
d="M1067 1731v-72h-649v72h649zM1360 119q28 -60 68.5 -83.5t115.5 -23.5v-12h-739v12q77 0 120 46.5t7 121.5l-387 815l188 418h21zM686 410l-379 -13q-28 -92 -28 -161q0 -54 24.5 -98t63 -70.5t82.5 -41t86 -14.5v-12h-590v8q129 0 237 228l281 589l6 -18
q-109 -236 -152 -373l363 -12z" />
    <glyph glyph-name="amacron" unicode="&#x101;" horiz-adv-x="1259" 
d="M293 1393h649v-72h-649v72zM326 659q-82 0 -130.5 47.5t-48.5 114.5q0 41 19.5 77.5t61.5 68.5t116.5 52.5t175.5 24.5v-12q-60 -9 -95.5 -51t-35.5 -98q0 -55 35.5 -87.5t97.5 -37.5q-23 -43 -79 -71t-117 -28zM979 -20q-126 0 -182 51.5t-56 179.5v627q0 80 -34 132
t-105 62v12q252 -9 363.5 -107.5t111.5 -301.5v-498q0 -84 58 -84q48 0 98 92h12q-24 -81 -96.5 -123t-169.5 -42zM354 -20q-132 0 -210.5 70t-77.5 192q1 131 109 204.5t284 73.5h221v-12h-62q-106 0 -161.5 -61.5t-55.5 -161.5q0 -199 129 -199q71 0 150 72v-13
q-144 -165 -326 -165z" />
    <glyph glyph-name="Abreve" unicode="&#x102;" horiz-adv-x="1486" 
d="M743 1530q-57 0 -107.5 18.5t-94 55.5t-72.5 100.5t-37 146.5h12q38 -77 122 -120t177 -43t177 43t122 120h13q-11 -110 -58.5 -184t-112 -105.5t-141.5 -31.5zM1360 119q28 -60 68.5 -83.5t115.5 -23.5v-12h-739v12q77 0 120 46.5t7 121.5l-387 815l188 418h21zM686 410
l-379 -13q-28 -92 -28 -161q0 -54 24.5 -98t63 -70.5t82.5 -41t86 -14.5v-12h-590v8q129 0 237 228l281 589l6 -18q-109 -236 -152 -373l363 -12z" />
    <glyph glyph-name="abreve" unicode="&#x103;" horiz-adv-x="1259" 
d="M618 1217q-121 0 -207.5 94.5t-103.5 261.5h12q38 -77 122 -120.5t177 -43.5t177.5 43.5t122.5 120.5h12q-17 -167 -104 -261.5t-208 -94.5zM326 659q-82 0 -130.5 47.5t-48.5 114.5q0 41 19.5 77.5t61.5 68.5t116.5 52.5t175.5 24.5v-12q-60 -9 -95.5 -51t-35.5 -98
q0 -55 35.5 -87.5t97.5 -37.5q-23 -43 -79 -71t-117 -28zM979 -20q-126 0 -182 51.5t-56 179.5v627q0 80 -34 132t-105 62v12q252 -9 363.5 -107.5t111.5 -301.5v-498q0 -84 58 -84q48 0 98 92h12q-24 -81 -96.5 -123t-169.5 -42zM354 -20q-132 0 -210.5 70t-77.5 192
q1 131 109 204.5t284 73.5h221v-12h-62q-106 0 -161.5 -61.5t-55.5 -161.5q0 -199 129 -199q71 0 150 72v-13q-144 -165 -326 -165z" />
    <glyph glyph-name="Aogonek" unicode="&#x104;" horiz-adv-x="1486" 
d="M1360 119q28 -60 68.5 -83.5t115.5 -23.5v-12h-567q-79 0 -132.5 -72.5t-53.5 -142.5q0 -63 29 -99t69 -36q39 0 65 33q0 -90 -58 -142.5t-144 -52.5q-83 0 -144 54t-61 143q0 105 85 188.5t222 126.5q37 11 65.5 41t28.5 76q0 25 -19 68t-131 278q-41 87 -68 143.5
t-80 167.5t-105 221l188 418h21zM279 236q0 -54 24.5 -98t63 -70.5t82.5 -41t86 -14.5v-12h-590v8q129 0 237 228l281 589l6 -18q-109 -236 -152 -373l363 -12l6 -12l-379 -13q-28 -92 -28 -161z" />
    <glyph glyph-name="aogonek" unicode="&#x105;" horiz-adv-x="1259" 
d="M326 659q-82 0 -130.5 47.5t-48.5 114.5q0 41 19.5 77.5t61.5 68.5t116.5 52.5t175.5 24.5v-12q-60 -9 -95.5 -51t-35.5 -98q0 -55 35.5 -87.5t97.5 -37.5q-23 -43 -79 -71t-117 -28zM1245 145q-24 -84 -102 -127q-92 -54 -135 -121.5t-43 -136.5q0 -52 29.5 -85
t68.5 -33q40 0 65 32q0 -90 -58 -142t-144 -52q-84 0 -144.5 52.5t-60.5 143.5q0 88 74.5 169t205.5 135h-22q-126 0 -182 51.5t-56 179.5v627q0 80 -34 132t-105 62v12q252 -9 363.5 -107.5t111.5 -301.5v-498q0 -84 58 -84q48 0 98 92h12zM66 242q1 131 109 204.5
t284 73.5h221v-12h-62q-106 0 -161.5 -61.5t-55.5 -161.5q0 -199 129 -199q71 0 150 72v-13q-144 -165 -326 -165q-132 0 -210.5 70t-77.5 192z" />
    <glyph glyph-name="Cacute" unicode="&#x106;" horiz-adv-x="1439" 
d="M838 1903l176 -174q-201 -201 -525 -234v10q100 71 192 177.5t157 220.5zM942 61q128 0 228 53t163 130l8 -17q-77 -123 -207 -185t-286 -62q-85 0 -172 20t-171 58.5t-157.5 100t-129.5 138t-88 179t-32 218.5q0 149 45 272t116.5 203t165.5 136t187.5 80.5t186.5 27.5
v-12q-299 -65 -299 -692q0 -127 16.5 -229t47 -171.5t70.5 -119t91 -77t103.5 -39.5t113.5 -12zM1333 1413h17v-498h-17q-118 400 -432 486v12q244 -11 371 -94z" />
    <glyph glyph-name="cacute" unicode="&#x107;" horiz-adv-x="1132" 
d="M410 1118l-4 10q79 95 140.5 220.5t94.5 253.5l215 -123q-143 -245 -446 -361zM610 1044v-12q-63 -7 -99.5 -51.5t-55.5 -154t-19 -302.5q0 -213 94.5 -334.5t237.5 -121.5q87 0 157 25.5t142 82.5v-12q-73 -93 -196 -138.5t-238 -45.5q-100 0 -196.5 36t-175 102
t-127 170t-48.5 228t48 226.5t124.5 166.5t168 99t183.5 36zM692 1044q188 0 280.5 -67t92.5 -164q0 -85 -55 -141t-150 -56q-71 0 -119.5 39t-58.5 90q41 17 69.5 62.5t28.5 87.5q0 119 -88 135v14z" />
    <glyph glyph-name="Cdotaccent" unicode="&#x10a;" horiz-adv-x="1439" 
d="M756 1532q-77 0 -126.5 46t-49.5 120q0 68 49 111.5t125 43.5q79 0 129.5 -43t50.5 -112q0 -74 -50.5 -120t-127.5 -46zM942 61q128 0 228 53t163 130l8 -17q-77 -123 -207 -185t-286 -62q-85 0 -172 20t-171 58.5t-157.5 100t-129.5 138t-88 179t-32 218.5q0 149 45 272
t116.5 203t165.5 136t187.5 80.5t186.5 27.5v-12q-299 -65 -299 -692q0 -127 16.5 -229t47 -171.5t70.5 -119t91 -77t103.5 -39.5t113.5 -12zM1333 1413h17v-498h-17q-118 400 -432 486v12q244 -11 371 -94z" />
    <glyph glyph-name="cdotaccent" unicode="&#x10b;" horiz-adv-x="1132" 
d="M631 1171q-93 0 -151 50t-58 131q0 79 58 128.5t151 49.5t151 -49.5t58 -128.5q0 -81 -58 -131t-151 -50zM610 1044v-12q-63 -7 -99.5 -51.5t-55.5 -154t-19 -302.5q0 -213 94.5 -334.5t237.5 -121.5q87 0 157 25.5t142 82.5v-12q-73 -93 -196 -138.5t-238 -45.5
q-100 0 -196.5 36t-175 102t-127 170t-48.5 228t48 226.5t124.5 166.5t168 99t183.5 36zM692 1044q188 0 280.5 -67t92.5 -164q0 -85 -55 -141t-150 -56q-71 0 -119.5 39t-58.5 90q41 17 69.5 62.5t28.5 87.5q0 119 -88 135v14z" />
    <glyph glyph-name="Ccaron" unicode="&#x10c;" horiz-adv-x="1439" 
d="M725 1507q-80 197 -317 371l6 12q205 -44 348 -172q143 128 348 172l6 -12q-234 -172 -317 -371h-74zM942 61q128 0 228 53t163 130l8 -17q-77 -123 -207 -185t-286 -62q-85 0 -172 20t-171 58.5t-157.5 100t-129.5 138t-88 179t-32 218.5q0 149 45 272t116.5 203
t165.5 136t187.5 80.5t186.5 27.5v-12q-299 -65 -299 -692q0 -127 16.5 -229t47 -171.5t70.5 -119t91 -77t103.5 -39.5t113.5 -12zM1333 1413h17v-498h-17q-118 400 -432 486v12q244 -11 371 -94z" />
    <glyph glyph-name="ccaron" unicode="&#x10d;" horiz-adv-x="1132" 
d="M594 1155q-118 242 -358 418l6 12q241 -47 389 -176q77 67 180 112.5t209 63.5l6 -12q-238 -174 -358 -418h-74zM768 68q87 0 157 25.5t142 82.5v-12q-73 -93 -196 -138.5t-238 -45.5q-100 0 -196.5 36t-175 102t-127 170t-48.5 228t48 226.5t124.5 166.5t168 99
t183.5 36v-12q-63 -7 -99.5 -51.5t-55.5 -154t-19 -302.5q0 -213 94.5 -334.5t237.5 -121.5zM682 745q41 17 69.5 62.5t28.5 87.5q0 119 -88 135v14q188 0 280.5 -67t92.5 -164q0 -85 -55 -141t-150 -56q-71 0 -119.5 39t-58.5 90z" />
    <glyph glyph-name="Dcaron" unicode="&#x10e;" horiz-adv-x="1603" 
d="M737 1507q-80 197 -317 371l6 12q205 -44 348 -172q143 128 348 172l6 -12q-234 -172 -317 -371h-74zM88 1380v13h502v-1393h-502v12q86 0 120 27t34 78v1157q0 51 -34 78.5t-120 27.5zM692 1393q389 0 599 -177t210 -514q0 -343 -210 -522.5t-599 -179.5v12
q96 6 169.5 43.5t131.5 114.5t88.5 211t30.5 321q0 150 -21 265.5t-57 190.5t-90 124.5t-115 71.5t-137 26v13z" />
    <glyph glyph-name="dcaron" unicode="&#x10f;" horiz-adv-x="1439" 
d="M1307 1047h-13q68 215 68 561h207q-8 -169 -75 -315t-187 -246zM1212 1505v-1368q0 -84 56 -84q48 0 98 92h12q-24 -81 -96.5 -123t-169.5 -42q-126 0 -182 51.5t-56 179.5v1094q0 57 -33 82.5t-118 25.5v12q142 0 251 18t238 62zM516 1044q86 0 172 -48.5t125 -114.5
v-17q-70 76 -170 76q-35 0 -60.5 -7.5t-53.5 -33t-46 -69.5t-29.5 -122.5t-11.5 -185.5t12 -187t31 -126.5t46.5 -75t53.5 -38t58 -9.5q76 0 170 72v-13q-39 -66 -125 -115.5t-172 -49.5q-62 0 -119 15t-113.5 53t-97.5 97.5t-66.5 156t-25.5 220.5q0 118 25 210.5t66 150
t97 95t113.5 52t120.5 14.5z" />
    <glyph glyph-name="Dcroat" unicode="&#x110;" horiz-adv-x="1603" 
d="M897 702h-307v-702h-502v12q86 0 120 27t34 78v585h-154v52h154v520q0 51 -34 78.5t-120 27.5v13h502v-639h307v-52zM692 1393q389 0 599 -177t210 -514q0 -343 -210 -522.5t-599 -179.5v12q96 6 169.5 43.5t131.5 114.5t88.5 211t30.5 321q0 150 -21 265.5t-57 190.5
t-90 124.5t-115 71.5t-137 26v13z" />
    <glyph glyph-name="dcroat" unicode="&#x111;" horiz-adv-x="1411" 
d="M1366 145h12q-24 -81 -96.5 -123t-169.5 -42q-126 0 -182 51.5t-56 179.5v952h-200v31h200v111q0 57 -33 82.5t-118 25.5v12q142 0 251 18t238 62v-311h154v-31h-154v-1026q0 -84 56 -84q48 0 98 92zM516 1044q86 0 172 -48.5t125 -114.5v-17q-70 76 -170 76
q-35 0 -60.5 -7.5t-53.5 -33t-46 -69.5t-29.5 -122.5t-11.5 -185.5t12 -187t31 -126.5t46.5 -75t53.5 -38t58 -9.5q76 0 170 72v-13q-39 -66 -125 -115.5t-172 -49.5q-62 0 -119 15t-113.5 53t-97.5 97.5t-66.5 156t-25.5 220.5q0 118 25 210.5t66 150t97 95t113.5 52
t120.5 14.5z" />
    <glyph glyph-name="Emacron" unicode="&#x112;" horiz-adv-x="1378" 
d="M356 1731h650v-72h-650v72zM590 0h-502v12q154 0 154 105v1157q0 106 -154 106v13h502v-1393zM692 1393h541v-379h-16q-66 194 -179 272.5t-346 93.5v13zM805 705l-113 10v12l113 10q92 8 156 48.5t114 127.5h17v-381h-17q-50 86 -113.5 125.5t-156.5 47.5zM692 0v12
q235 15 360 95t208 272h16v-379h-584z" />
    <glyph glyph-name="emacron" unicode="&#x113;" horiz-adv-x="1153" 
d="M252 1393h649v-72h-649v72zM612 -20q-79 0 -155 22.5t-143 67.5t-118 108t-80.5 150.5t-29.5 187.5q0 124 44.5 226.5t117 166.5t160.5 99t180 36v-12q-62 -7 -94.5 -53t-46 -150.5t-13.5 -304.5q0 -216 87 -336t227 -120q87 0 157 25.5t142 82.5v-12
q-73 -93 -196 -138.5t-239 -45.5zM547 590v12q137 0 196.5 51t59.5 178q0 79 -34 135.5t-99 65.5v12q97 0 176 -32t126.5 -83.5t73 -112t25.5 -120.5q0 -54 -10 -106h-514z" />
    <glyph glyph-name="Edotaccent" unicode="&#x116;" horiz-adv-x="1378" 
d="M686 1532q-77 0 -126.5 46t-49.5 120q0 68 49 111.5t125 43.5q79 0 129.5 -43t50.5 -112q0 -74 -50.5 -120t-127.5 -46zM590 0h-502v12q154 0 154 105v1157q0 106 -154 106v13h502v-1393zM692 1393h541v-379h-16q-66 194 -179 272.5t-346 93.5v13zM805 705l-113 10v12
l113 10q92 8 156 48.5t114 127.5h17v-381h-17q-50 86 -113.5 125.5t-156.5 47.5zM692 0v12q235 15 360 95t208 272h16v-379h-584z" />
    <glyph glyph-name="edotaccent" unicode="&#x117;" horiz-adv-x="1153" 
d="M578 1171q-93 0 -151 50t-58 131q0 79 58 128.5t151 49.5q92 0 150 -49.5t58 -128.5q0 -81 -57.5 -131t-150.5 -50zM612 -20q-79 0 -155 22.5t-143 67.5t-118 108t-80.5 150.5t-29.5 187.5q0 124 44.5 226.5t117 166.5t160.5 99t180 36v-12q-62 -7 -94.5 -53t-46 -150.5
t-13.5 -304.5q0 -216 87 -336t227 -120q87 0 157 25.5t142 82.5v-12q-73 -93 -196 -138.5t-239 -45.5zM547 590v12q137 0 196.5 51t59.5 178q0 79 -34 135.5t-99 65.5v12q97 0 176 -32t126.5 -83.5t73 -112t25.5 -120.5q0 -54 -10 -106h-514z" />
    <glyph glyph-name="Eogonek" unicode="&#x118;" horiz-adv-x="1378" 
d="M88 1380v13h502v-1393h-502v12q154 0 154 105v1157q0 106 -154 106zM1217 1014q-66 194 -179 272.5t-346 93.5v13h541v-379h-16zM1075 532q-50 86 -113.5 125.5t-156.5 47.5l-113 10v12l113 10q92 8 156 48.5t114 127.5h17v-381h-17zM1260 379h16v-379
q-176 -91 -176 -231q0 -52 29.5 -85.5t68.5 -33.5q40 0 66 33q0 -90 -58.5 -142.5t-144.5 -52.5q-84 0 -144.5 53t-60.5 144q0 96 98.5 182t251.5 133h-514v12q235 15 360 95t208 272z" />
    <glyph glyph-name="eogonek" unicode="&#x119;" horiz-adv-x="1153" 
d="M434 524q0 -216 87 -336t227 -120q87 0 157 25.5t142 82.5v-12q-69 -88 -193 -137q-90 -44 -134 -115t-44 -143q0 -52 29.5 -85.5t68.5 -33.5q40 0 66 33q0 -90 -58.5 -142.5t-144.5 -52.5q-84 0 -144.5 53t-60.5 144q0 87 74.5 168t204.5 135q-47 -8 -99 -8
q-79 0 -155 22.5t-143 67.5t-118 108t-80.5 150.5t-29.5 187.5q0 124 44.5 226.5t117 166.5t160.5 99t180 36v-12q-62 -7 -94.5 -53t-46 -150.5t-13.5 -304.5zM670 1044q97 0 176 -32t126.5 -83.5t73 -112t25.5 -120.5q0 -54 -10 -106h-514v12q137 0 196.5 51t59.5 178
q0 79 -34 135.5t-99 65.5v12z" />
    <glyph glyph-name="Ecaron" unicode="&#x11a;" horiz-adv-x="1378" 
d="M1047 1878q-236 -173 -318 -371h-74q-80 197 -317 371l6 12q205 -44 348 -172q143 128 348 172zM88 1380v13h502v-1393h-502v12q154 0 154 105v1157q0 106 -154 106zM1233 1014h-16q-66 194 -179 272.5t-346 93.5v13h541v-379zM805 737q92 8 156 48.5t114 127.5h17v-381
h-17q-50 86 -113.5 125.5t-156.5 47.5l-113 10v12zM1260 379h16v-379h-584v12q235 15 360 95t208 272z" />
    <glyph glyph-name="ecaron" unicode="&#x11b;" horiz-adv-x="1153" 
d="M541 1155q-118 241 -359 418l6 12q242 -48 390 -176q77 67 180 112.5t209 63.5l6 -12q-239 -175 -359 -418h-73zM434 524q0 -216 87 -336t227 -120q87 0 157 25.5t142 82.5v-12q-73 -93 -196 -138.5t-239 -45.5q-79 0 -155 22.5t-143 67.5t-118 108t-80.5 150.5
t-29.5 187.5q0 124 44.5 226.5t117 166.5t160.5 99t180 36v-12q-62 -7 -94.5 -53t-46 -150.5t-13.5 -304.5zM670 1044q97 0 176 -32t126.5 -83.5t73 -112t25.5 -120.5q0 -54 -10 -106h-514v12q137 0 196.5 51t59.5 178q0 79 -34 135.5t-99 65.5v12z" />
    <glyph glyph-name="Gbreve" unicode="&#x11e;" horiz-adv-x="1583" 
d="M1077 1851q-8 -83 -37 -146.5t-72.5 -100.5t-94 -55.5t-107.5 -18.5t-107.5 18.5t-94 55.5t-72.5 100.5t-37 146.5h12q38 -77 122 -120t177 -43t177 43t122 120h12zM98 696q0 133 41.5 250t109 198.5t153.5 142t174.5 91t173.5 35.5v-12q-58 -7 -101.5 -42.5t-78 -112
t-52.5 -211t-18 -326.5q0 -193 18 -331.5t52.5 -219.5t78 -120t101.5 -46v-12q-91 5 -180.5 34t-175.5 87t-151 139t-105 199t-40 257zM1333 915q-42 184 -172 317t-311 169v12q282 -13 420 -96l63 96h17v-498h-17zM918 588h626v-13q-151 0 -151 -120v-475h-17l-73 122
q-152 -110 -451 -122v12q219 16 219 250v213q0 65 -33.5 92.5t-119.5 27.5v13z" />
    <glyph glyph-name="gbreve" unicode="&#x11f;" horiz-adv-x="1202" 
d="M602 1217q-121 0 -207.5 94.5t-103.5 261.5h12q38 -77 122 -120.5t177 -43.5t177 43.5t122 120.5h12q-17 -167 -103.5 -261.5t-207.5 -94.5zM762 1075l-10 6q14 42 37.5 83t57 78.5t79.5 61t96 23.5q82 0 128 -41.5t46 -114.5q0 -71 -51.5 -115t-114.5 -44
q0 64 -30 100.5t-80 36.5q-44 0 -89.5 -22.5t-68.5 -51.5zM555 311q-82 0 -160 20.5t-146.5 61.5t-110.5 114t-42 167q0 77 28 140t73.5 104.5t106 70t123.5 41.5t128 14v-12q-66 -6 -97.5 -90.5t-31.5 -261.5q0 -184 31 -267t98 -89v-13zM641 311v13q75 6 108 88.5
t33 267.5q0 178 -33.5 262t-107.5 90v12q68 -1 132.5 -14t126.5 -41.5t108 -70t74 -104.5t28 -140q0 -76 -28 -138.5t-74.5 -103.5t-108 -69t-126 -40t-132.5 -12zM641 -512v12q73 9 128 32.5t84.5 54t43.5 61.5t14 61q0 58 -44 92t-114.5 47.5t-155.5 20.5t-170 17
t-155.5 30t-114.5 68t-44 122q0 123 137 209l6 -10q-18 -12 -18 -39q0 -46 51.5 -71t133.5 -33t181.5 -12.5t199.5 -17t182 -39t133.5 -86t51.5 -150.5q0 -160 -136 -257t-394 -112zM559 -512q-88 2 -163 12t-141 30.5t-104 56.5t-38 85q0 58 45.5 94.5t111.5 50t154 13.5
q-32 -14 -60 -55t-28 -90q0 -68 65.5 -119.5t157.5 -65.5v-12z" />
    <glyph glyph-name="Gdotaccent" unicode="&#x120;" horiz-adv-x="1583" 
d="M948 1698q0 -74 -50.5 -120t-127.5 -46t-126.5 46t-49.5 120q0 68 49 111.5t125 43.5q79 0 129.5 -43t50.5 -112zM98 696q0 133 41.5 250t109 198.5t153.5 142t174.5 91t173.5 35.5v-12q-58 -7 -101.5 -42.5t-78 -112t-52.5 -211t-18 -326.5q0 -193 18 -331.5
t52.5 -219.5t78 -120t101.5 -46v-12q-91 5 -180.5 34t-175.5 87t-151 139t-105 199t-40 257zM1333 915q-42 184 -172 317t-311 169v12q282 -13 420 -96l63 96h17v-498h-17zM918 588h626v-13q-151 0 -151 -120v-475h-17l-73 122q-152 -110 -451 -122v12q219 16 219 250v213
q0 65 -33.5 92.5t-119.5 27.5v13z" />
    <glyph glyph-name="gdotaccent" unicode="&#x121;" horiz-adv-x="1202" 
d="M602 1171q-93 0 -151 50t-58 131q0 79 58 128.5t151 49.5t151 -49.5t58 -128.5q0 -81 -58 -131t-151 -50zM762 1075l-10 6q14 42 37.5 83t57 78.5t79.5 61t96 23.5q82 0 128 -41.5t46 -114.5q0 -71 -51.5 -115t-114.5 -44q0 64 -30 100.5t-80 36.5q-44 0 -89.5 -22.5
t-68.5 -51.5zM555 311q-82 0 -160 20.5t-146.5 61.5t-110.5 114t-42 167q0 77 28 140t73.5 104.5t106 70t123.5 41.5t128 14v-12q-66 -6 -97.5 -90.5t-31.5 -261.5q0 -184 31 -267t98 -89v-13zM641 311v13q75 6 108 88.5t33 267.5q0 178 -33.5 262t-107.5 90v12
q68 -1 132.5 -14t126.5 -41.5t108 -70t74 -104.5t28 -140q0 -76 -28 -138.5t-74.5 -103.5t-108 -69t-126 -40t-132.5 -12zM641 -512v12q73 9 128 32.5t84.5 54t43.5 61.5t14 61q0 58 -44 92t-114.5 47.5t-155.5 20.5t-170 17t-155.5 30t-114.5 68t-44 122q0 123 137 209
l6 -10q-18 -12 -18 -39q0 -46 51.5 -71t133.5 -33t181.5 -12.5t199.5 -17t182 -39t133.5 -86t51.5 -150.5q0 -160 -136 -257t-394 -112zM559 -512q-88 2 -163 12t-141 30.5t-104 56.5t-38 85q0 58 45.5 94.5t111.5 50t154 13.5q-32 -14 -60 -55t-28 -90q0 -68 65.5 -119.5
t157.5 -65.5v-12z" />
    <glyph glyph-name="Gcommaaccent" unicode="&#x122;" horiz-adv-x="1583" 
d="M750 -8v-12q-91 5 -180.5 34t-175.5 87t-151 139t-105 199t-40 257q0 133 41.5 250t109 198.5t153.5 142t174.5 91t173.5 35.5v-12q-58 -7 -101.5 -42.5t-78 -112t-52.5 -211t-18 -326.5q0 -193 18 -331.5t52.5 -219.5t78 -120t101.5 -46zM1333 915q-42 184 -172 317
t-311 169v12q282 -13 420 -96l63 96h17v-498h-17zM918 588h626v-13q-151 0 -151 -120v-475h-17l-73 122q-152 -110 -451 -122v12q219 16 219 250v213q0 65 -33.5 92.5t-119.5 27.5v13zM772 -90q84 0 144.5 -53t60.5 -144q0 -115 -118.5 -219.5t-301.5 -128.5l-2 6
q178 99 178 258q0 52 -29.5 85.5t-68.5 33.5q-40 0 -66 -33q0 90 58.5 142.5t144.5 52.5z" />
    <glyph glyph-name="gcommaaccent" unicode="&#x123;" horiz-adv-x="1202" 
d="M582 1188q-84 0 -137.5 48.5t-53.5 139.5q0 110 111 210.5t262 125.5l2 -6q-85 -56 -120.5 -113t-35.5 -133q0 -53 27 -88t65 -35q47 0 76 37q0 -84 -56 -135t-140 -51zM762 1075l-10 6q14 42 37.5 83t57 78.5t79.5 61t96 23.5q82 0 128 -41.5t46 -114.5
q0 -71 -51.5 -115t-114.5 -44q0 64 -30 100.5t-80 36.5q-44 0 -89.5 -22.5t-68.5 -51.5zM555 311q-82 0 -160 20.5t-146.5 61.5t-110.5 114t-42 167q0 77 28 140t73.5 104.5t106 70t123.5 41.5t128 14v-12q-66 -6 -97.5 -90.5t-31.5 -261.5q0 -184 31 -267t98 -89v-13z
M641 311v13q75 6 108 88.5t33 267.5q0 178 -33.5 262t-107.5 90v12q68 -1 132.5 -14t126.5 -41.5t108 -70t74 -104.5t28 -140q0 -76 -28 -138.5t-74.5 -103.5t-108 -69t-126 -40t-132.5 -12zM641 -512v12q73 9 128 32.5t84.5 54t43.5 61.5t14 61q0 58 -44 92t-114.5 47.5
t-155.5 20.5t-170 17t-155.5 30t-114.5 68t-44 122q0 123 137 209l6 -10q-18 -12 -18 -39q0 -46 51.5 -71t133.5 -33t181.5 -12.5t199.5 -17t182 -39t133.5 -86t51.5 -150.5q0 -160 -136 -257t-394 -112zM559 -512q-88 2 -163 12t-141 30.5t-104 56.5t-38 85q0 58 45.5 94.5
t111.5 50t154 13.5q-32 -14 -60 -55t-28 -90q0 -68 65.5 -119.5t157.5 -65.5v-12z" />
    <glyph glyph-name="Hbar" unicode="&#x126;" horiz-adv-x="1714" 
d="M1636 993h-163v-876q0 -105 153 -105v-12h-655v12q153 0 153 105v876h-534v-278l432 -10v-13l-432 -10v-565q0 -105 151 -105v-12h-653v12q154 0 154 105v876h-164v51h164v232q0 104 -154 104v13h653v-13q-151 0 -151 -104v-232h534v232q0 106 -153 104v13h655v-13
q-153 0 -153 -104v-232h163v-51z" />
    <glyph glyph-name="hbar" unicode="&#x127;" horiz-adv-x="1423" 
d="M528 117q0 -45 35 -75t119 -30v-12h-645v12q153 0 153 105v1065h-149v30h149v93q0 57 -33 82.5t-118 25.5v12q292 0 489 80v-293h205v-30h-205v-1065zM1245 117q0 -45 35 -75t119 -30v-12h-643v12q151 0 151 105v639q0 85 -42.5 129.5t-119.5 44.5q-85 0 -155 -64v13
q44 68 137.5 116.5t202.5 48.5q145 0 230 -71t85 -217v-639z" />
    <glyph glyph-name="Itilde" unicode="&#x128;" horiz-adv-x="831" 
d="M90 1524q-25 22 -41 60t-16 79q0 76 48.5 125t151.5 49q70 0 155 -28.5t161.5 -56.5t124.5 -28q42 0 64 18t22 48q0 26 -33 65h12q25 -22 41.5 -59.5t16.5 -73.5q0 -77 -48 -128.5t-153 -51.5q-56 0 -122 17.5t-116 39t-106.5 39t-95.5 17.5q-42 0 -64 -18t-22 -48
q0 -27 32 -65h-12zM88 0v12q154 0 154 105v1159q0 104 -154 104v13h655v-13q-153 0 -153 -104v-1159q0 -105 153 -105v-12h-655z" />
    <glyph glyph-name="itilde" unicode="&#x129;" horiz-adv-x="733" 
d="M74 1186q-22 22 -36.5 60.5t-14.5 78.5q0 76 43.5 125t136.5 49q62 0 138.5 -28.5t145.5 -56.5t113 -28q37 0 56.5 18t19.5 48q0 27 -29 66h10q23 -22 38.5 -59.5t15.5 -74.5q0 -77 -44.5 -128.5t-138.5 -51.5q-49 0 -108.5 17.5t-104.5 39t-96 39t-86 17.5
q-37 0 -57.5 -18t-20.5 -48q0 -23 31 -65h-12zM53 954v13q293 0 490 80v-930q0 -105 153 -105v-12h-645v12q84 0 119 30t35 75v729q0 57 -33.5 82.5t-118.5 25.5z" />
    <glyph glyph-name="Imacron" unicode="&#x12a;" horiz-adv-x="831" 
d="M90 1731h649v-72h-649v72zM88 0v12q154 0 154 105v1159q0 104 -154 104v13h655v-13q-153 0 -153 -104v-1159q0 -105 153 -105v-12h-655z" />
    <glyph glyph-name="imacron" unicode="&#x12b;" horiz-adv-x="733" 
d="M74 1393h583v-72h-583v72zM53 954v13q293 0 490 80v-930q0 -105 153 -105v-12h-645v12q84 0 119 30t35 75v729q0 57 -33.5 82.5t-118.5 25.5z" />
    <glyph glyph-name="Iogonek" unicode="&#x12e;" horiz-adv-x="831" 
d="M743 1380q-153 0 -153 -104v-1159q0 -105 153 -105v-12h-258q-73 -110 -73 -223q0 -61 33 -94t75 -33q40 0 66 33q0 -90 -58.5 -142.5t-144.5 -52.5q-84 0 -144.5 53t-60.5 144q0 88 72.5 172t181.5 143h-344v12q154 0 154 105v1159q0 104 -154 104v13h655v-13z" />
    <glyph glyph-name="iogonek" unicode="&#x12f;" horiz-adv-x="733" 
d="M367 1171q-93 0 -151 50t-58 131q0 79 58 128.5t151 49.5q92 0 150 -49.5t58 -128.5q0 -81 -57.5 -131t-150.5 -50zM463 0q-74 -69 -74 -197q0 -73 35.5 -113t77.5 -40q39 0 65 33q0 -90 -58 -142.5t-144 -52.5q-84 0 -144.5 53t-60.5 144q0 84 60 166t179 149h-348v12
q84 0 119 30t35 75v729q0 57 -33.5 82.5t-118.5 25.5v13q293 0 490 80v-930q0 -105 153 -105v-12h-233z" />
    <glyph glyph-name="Idotaccent" unicode="&#x130;" horiz-adv-x="831" 
d="M420 1532q-77 0 -126.5 46t-49.5 120q0 68 49 111.5t125 43.5q79 0 129.5 -43t50.5 -112q0 -74 -50.5 -120t-127.5 -46zM88 0v12q154 0 154 105v1159q0 104 -154 104v13h655v-13q-153 0 -153 -104v-1159q0 -105 153 -105v-12h-655z" />
    <glyph glyph-name="dotlessi" unicode="&#x131;" horiz-adv-x="733" 
d="M53 954v13q293 0 490 80v-930q0 -105 153 -105v-12h-645v12q84 0 119 30t35 75v729q0 57 -33.5 82.5t-118.5 25.5z" />
    <glyph glyph-name="IJ" unicode="&#x132;" horiz-adv-x="1587" 
d="M57 676v12q84 0 119 30t35 75v483q0 100 -154 100v17h656v-17q-154 0 -154 -100v-483q0 -45 35 -75t119 -30v-12h-656zM877 -20v16q23 6 42 18t33 31.5t25.5 38t19.5 50t14 54t9.5 62.5t5.5 64t3 70.5t1 69.5v72v748q0 102 -153 102v17h655v-17q-154 0 -154 -102v-748
q0 -57 -4 -101.5t-17 -96.5t-35 -92.5t-59.5 -82.5t-89.5 -73t-127 -57.5t-169 -42.5zM801 -20q-60 3 -116 25.5t-100.5 60.5t-71 97t-26.5 130q0 96 65 156.5t159 60.5q73 0 122.5 -46.5t49.5 -107.5q-84 0 -139.5 -47t-55.5 -123q0 -68 32.5 -120t80.5 -70v-16z" />
    <glyph glyph-name="ij" unicode="&#x133;" horiz-adv-x="1423" 
d="M367 1171q-93 0 -151 50t-58 131q0 79 58 128.5t151 49.5q92 0 150 -49.5t58 -128.5q0 -81 -57.5 -131t-150.5 -50zM1077 1171q-93 0 -151 50t-58 131q0 79 58 128.5t151 49.5t151 -49.5t58 -128.5q0 -81 -58 -131t-151 -50zM53 954v13q293 0 490 80v-930
q0 -105 153 -105v-12h-645v12q84 0 119 30t35 75v729q0 57 -33.5 82.5t-118.5 25.5zM766 954v13q292 0 489 80v-1108q0 -98 -26.5 -175t-73 -128.5t-113 -85t-143.5 -48t-168 -14.5v12q90 0 138.5 53.5t48.5 141.5v1151q0 57 -33.5 82.5t-118.5 25.5z" />
    <glyph glyph-name="Kcommaaccent" unicode="&#x136;" horiz-adv-x="1579" 
d="M741 12v-12h-653v12q154 0 154 105v1157q0 106 -154 106v13h653v-13q-151 0 -151 -106v-1157q0 -105 151 -105zM1456 115q35 -52 69 -77.5t87 -25.5v-12h-672v12q47 0 78 20.5t31 51.5q0 45 -29 90l-322 492q113 113 192 213.5t116.5 173.5t53 123.5t15.5 89.5
q0 55 -43.5 84.5t-93.5 29.5v13h602v-13q-61 0 -103.5 -24.5t-97.5 -77.5l-397 -379zM797 -90q84 0 144 -53t60 -144q0 -115 -118 -219.5t-301 -128.5l-2 6q178 99 178 258q0 52 -30 85.5t-69 33.5t-65 -33q0 90 58.5 142.5t144.5 52.5z" />
    <glyph glyph-name="kcommaaccent" unicode="&#x137;" horiz-adv-x="1345" 
d="M682 12v-12h-645v12q153 0 153 105v1188q0 57 -33 82.5t-118 25.5v12q292 0 489 80v-1388q0 -45 35 -75t119 -30zM1190 129q32 -48 65 -74t55.5 -32t65.5 -11v-12q-71 -20 -205 -20q-54 0 -97 6.5t-93.5 26t-96 61t-83.5 104.5l-193 322q134 117 224 231t90 187
q0 45 -27.5 69.5t-93.5 24.5v12h524v-12q-68 0 -115 -37l-374 -297zM686 -90q84 0 144.5 -53t60.5 -144q0 -115 -118.5 -219.5t-301.5 -128.5l-2 6q178 99 178 258q0 52 -29.5 85.5t-68.5 33.5q-40 0 -66 -33q0 90 58.5 142.5t144.5 52.5z" />
    <glyph glyph-name="kgreenlandic" unicode="&#x138;" horiz-adv-x="1357" 
d="M541 117q0 -105 153 -105v-12h-645v12q84 0 119 30t35 75v727q0 57 -33.5 82.5t-118.5 25.5v13q296 0 490 79v-927zM1202 129q25 -37 47.5 -60t47.5 -34t42.5 -15t49.5 -8v-12q-71 -20 -205 -20q-54 0 -97 6.5t-94 26t-96.5 61t-83.5 104.5l-192 322q133 116 223 230.5
t90 187.5q0 45 -27.5 69.5t-93.5 24.5v12h524v-12q-67 0 -114 -37l-375 -297z" />
    <glyph glyph-name="Lacute" unicode="&#x139;" horiz-adv-x="1306" 
d="M379 1495v10q100 71 191.5 177.5t156.5 220.5l176 -174q-201 -201 -524 -234zM590 0h-502v12q154 0 154 105v1159q0 104 -154 104v13h655v-13q-153 0 -153 -104v-1276zM692 0v12q151 10 249.5 48.5t172.5 127.5t123 242h16v-430h-561z" />
    <glyph glyph-name="lacute" unicode="&#x13a;" horiz-adv-x="718" 
d="M98 1577v10q100 71 191.5 177.5t156.5 220.5l177 -175q-200 -200 -525 -233zM39 1413v12q292 0 489 80v-1388q0 -45 35 -75t119 -30v-12h-645v12q153 0 153 105v1188q0 57 -33 82.5t-118 25.5z" />
    <glyph glyph-name="Lcommaaccent" unicode="&#x13b;" horiz-adv-x="1306" 
d="M590 0h-502v12q154 0 154 105v1159q0 104 -154 104v13h655v-13q-153 0 -153 -104v-1276zM692 0v12q151 10 249.5 48.5t172.5 127.5t123 242h16v-430h-561zM432 -635l-2 6q178 99 178 258q0 52 -29.5 85.5t-68.5 33.5q-40 0 -66 -33q0 90 58.5 142.5t144.5 52.5
q84 0 144.5 -53t60.5 -144q0 -115 -118.5 -219.5t-301.5 -128.5z" />
    <glyph glyph-name="lcommaaccent" unicode="&#x13c;" horiz-adv-x="718" 
d="M39 1413v12q292 0 489 80v-1388q0 -45 35 -75t119 -30v-12h-645v12q153 0 153 105v1188q0 57 -33 82.5t-118 25.5zM152 -635l-2 6q178 99 178 258q0 52 -30 85.5t-69 33.5t-65 -33q0 90 58.5 142.5t144.5 52.5q84 0 144 -53t60 -144q0 -115 -118 -219.5t-301 -128.5z" />
    <glyph glyph-name="Lcaron" unicode="&#x13d;" horiz-adv-x="1308" 
d="M870 1047h-12q68 215 68 561h207q-8 -169 -75.5 -315t-187.5 -246zM590 0h-502v12q154 0 154 105v1159q0 104 -154 104v13h655v-13q-153 0 -153 -104v-1276zM692 0v12q151 10 249.5 48.5t172.5 127.5t123 242h16v-430h-561z" />
    <glyph glyph-name="lcaron" unicode="&#x13e;" horiz-adv-x="718" 
d="M659 1047h-12q68 215 68 561h207q-8 -169 -75.5 -315t-187.5 -246zM39 1413v12q292 0 489 80v-1388q0 -45 35 -75t119 -30v-12h-645v12q153 0 153 105v1188q0 57 -33 82.5t-118 25.5z" />
    <glyph glyph-name="Ldot" unicode="&#x13f;" horiz-adv-x="1308" 
d="M590 0h-502v12q154 0 154 105v1159q0 104 -154 104v13h655v-13q-153 0 -153 -104v-1276zM993 639q-77 0 -126.5 46t-49.5 120q0 69 49.5 112.5t124.5 43.5q78 0 129 -43.5t51 -112.5q0 -74 -50.5 -120t-127.5 -46zM692 0v12q151 10 249.5 48.5t172.5 127.5t123 242h16
v-430h-561z" />
    <glyph glyph-name="ldot" unicode="&#x140;" horiz-adv-x="1097" 
d="M39 1413v12q292 0 489 80v-1388q0 -45 35 -75t119 -30v-12h-645v12q153 0 153 105v1188q0 57 -33 82.5t-118 25.5zM907 459q-77 0 -126.5 46t-49.5 120q0 68 49 111.5t125 43.5q79 0 129.5 -43t50.5 -112q0 -74 -50.5 -120t-127.5 -46z" />
    <glyph glyph-name="Lslash" unicode="&#x141;" horiz-adv-x="1306" 
d="M883 938l-293 -184v-754h-502v12q154 0 154 105v415l-154 -96v56l154 96v688q0 104 -154 104v13h655v-13q-153 0 -153 -104v-469l293 184v-53zM1237 430h16v-430h-561v12q151 10 249.5 48.5t172.5 127.5t123 242z" />
    <glyph glyph-name="lslash" unicode="&#x142;" horiz-adv-x="718" 
d="M528 117q0 -45 35 -75t119 -30v-12h-645v12q153 0 153 105v477l-149 -100v49l149 100v662q0 57 -33 82.5t-118 25.5v12q292 0 489 80v-637l150 101v-49l-150 -101v-702z" />
    <glyph glyph-name="Nacute" unicode="&#x143;" horiz-adv-x="1595" 
d="M541 1495v10q100 71 191.5 177.5t156.5 220.5l176 -174q-201 -201 -524 -234zM1354 264v-264h-228l-856 1276q-39 59 -88 81.5t-129 22.5v13h547zM1358 1208l-8 -737l-17 23l-24 714q-2 72 -53.5 122t-147.5 50v13h451v-13q-95 0 -148 -51t-53 -121zM252 184l16 885
l17 -25l16 -860q2 -72 53.5 -122t147.5 -50v-12h-451v12q95 0 147 50.5t54 121.5z" />
    <glyph glyph-name="nacute" unicode="&#x144;" horiz-adv-x="1437" 
d="M498 1118l-4 10q79 95 140.5 220.5t94.5 253.5l215 -123q-143 -245 -446 -361zM49 0v12q84 0 119 30t35 75v727q0 57 -33.5 82.5t-118.5 25.5v13q296 0 490 79v-927q0 -105 153 -105v-12h-645zM770 0v12q83 0 117.5 30t34.5 75v639q0 85 -42.5 129.5t-119.5 44.5
q-86 0 -156 -64v13q44 68 137.5 116.5t202.5 48.5q145 0 230.5 -71t85.5 -217v-639q0 -105 153 -105v-12h-643z" />
    <glyph glyph-name="Ncommaaccent" unicode="&#x145;" horiz-adv-x="1595" 
d="M1354 264v-264h-228l-856 1276q-39 59 -88 81.5t-129 22.5v13h547zM1358 1208l-8 -737l-17 23l-24 714q-2 72 -53.5 122t-147.5 50v13h451v-13q-95 0 -148 -51t-53 -121zM252 184l16 885l17 -25l16 -860q2 -72 53.5 -122t147.5 -50v-12h-451v12q95 0 147 50.5t54 121.5z
M594 -635l-2 6q178 99 178 258q0 52 -29.5 85.5t-68.5 33.5q-40 0 -66 -33q0 90 58.5 142.5t144.5 52.5q84 0 144.5 -53t60.5 -144q0 -115 -118.5 -219.5t-301.5 -128.5z" />
    <glyph glyph-name="ncommaaccent" unicode="&#x146;" horiz-adv-x="1437" 
d="M49 0v12q84 0 119 30t35 75v727q0 57 -33.5 82.5t-118.5 25.5v13q296 0 490 79v-927q0 -105 153 -105v-12h-645zM770 0v12q83 0 117.5 30t34.5 75v639q0 85 -42.5 129.5t-119.5 44.5q-86 0 -156 -64v13q44 68 137.5 116.5t202.5 48.5q145 0 230.5 -71t85.5 -217v-639
q0 -105 153 -105v-12h-643zM510 -635l-2 6q178 99 178 258q0 52 -29.5 85.5t-68.5 33.5q-40 0 -66 -33q0 90 58.5 142.5t144.5 52.5q84 0 144.5 -53t60.5 -144q0 -115 -118.5 -219.5t-301.5 -128.5z" />
    <glyph glyph-name="Ncaron" unicode="&#x147;" horiz-adv-x="1595" 
d="M776 1507q-80 197 -317 371l6 12q205 -44 348 -172q143 128 348 172l6 -12q-234 -172 -317 -371h-74zM53 1393h547l754 -1129v-264h-228l-856 1276q-39 59 -88 81.5t-129 22.5v13zM1108 1393h451v-13q-95 0 -148 -51t-53 -121l-8 -737l-17 23l-24 714q-2 72 -53.5 122
t-147.5 50v13zM301 184q2 -72 53.5 -122t147.5 -50v-12h-451v12q95 0 147 50.5t54 121.5l16 885l17 -25z" />
    <glyph glyph-name="ncaron" unicode="&#x148;" horiz-adv-x="1437" 
d="M682 1155q-118 242 -358 418l6 12q241 -47 389 -176q77 67 180 112.5t209 63.5l6 -12q-238 -174 -358 -418h-74zM541 117q0 -105 153 -105v-12h-645v12q84 0 119 30t35 75v727q0 57 -33.5 82.5t-118.5 25.5v13q296 0 490 79v-927zM1260 117q0 -105 153 -105v-12h-643v12
q83 0 117.5 30t34.5 75v639q0 85 -42.5 129.5t-119.5 44.5q-86 0 -156 -64v13q44 68 137.5 116.5t202.5 48.5q145 0 230.5 -71t85.5 -217v-639z" />
    <glyph glyph-name="napostrophe" unicode="&#x149;" horiz-adv-x="1716" 
d="M236 1505q69 0 117 -47.5t48 -130.5q0 -93 -91 -196t-240 -164l-7 18q49 39 83 93t34 106q0 66 -39 99.5t-100 35.5q12 90 63.5 138t131.5 48zM328 0v12q153 0 153 105v727q0 57 -33 82.5t-118 25.5v13q295 0 489 79v-927q0 -45 35 -75t119 -30v-12h-645zM1049 0v12
q151 0 151 105v639q0 85 -42.5 129.5t-119.5 44.5q-85 0 -155 -64v13q44 68 137.5 116.5t202.5 48.5q145 0 230 -71t85 -217v-639q0 -45 35 -75t119 -30v-12h-643z" />
    <glyph glyph-name="Eng" unicode="&#x14a;" horiz-adv-x="1595" 
d="M53 1393h547l754 -1129v-264q0 -112 -17.5 -199t-58 -157t-111.5 -110t-172 -46v12q27 9 48 31.5t34.5 50t23 70.5t14.5 78.5t7.5 90.5t3 89t0.5 90l-856 1276q-39 59 -88 81.5t-129 22.5v13zM1108 1393h451v-13q-95 0 -148 -51t-53 -121l-8 -737l-17 23l-24 714
q-2 72 -53.5 122t-147.5 50v13zM301 184q2 -72 53.5 -122t147.5 -50v-12h-451v12q95 0 147 50.5t54 121.5l16 885l17 -25zM936 -154q-78 -4 -121 -45t-43 -110q0 -68 35.5 -120.5t85.5 -70.5v-12q-160 3 -254 71t-94 203q0 99 63.5 155t157.5 56q71 0 115 -34t55 -93z" />
    <glyph glyph-name="eng" unicode="&#x14b;" horiz-adv-x="1415" 
d="M49 0v12q84 0 119 30t35 75v727q0 57 -33.5 82.5t-118.5 25.5v13q296 0 490 79v-927q0 -105 153 -105v-12h-645zM735 -512v12q90 0 138.5 53.5t48.5 141.5v1061q0 85 -42.5 129.5t-119.5 44.5q-86 0 -156 -64v13q44 68 137.5 116.5t202.5 48.5q145 0 230.5 -71t85.5 -217
v-817q0 -122 -40 -211t-113 -140.5t-165 -75.5t-207 -24z" />
    <glyph glyph-name="Omacron" unicode="&#x14c;" horiz-adv-x="1675" 
d="M512 1731h649v-72h-649v72zM786 -20q-90 0 -185.5 30t-185.5 91.5t-160.5 146.5t-113.5 205t-43 256q0 112 30 212t81.5 175.5t119.5 136.5t145 99.5t156.5 59t155.5 21.5v-12q-62 -6 -110 -40.5t-89.5 -109.5t-64 -212t-22.5 -330q0 -153 15.5 -274t41.5 -200t63 -133
t77.5 -79t88.5 -31v-12zM889 -20v12q60 7 109.5 47t90.5 120.5t64 220.5t23 329q0 193 -22.5 330t-64.5 212t-90 109.5t-110 40.5v12q76 -1 155.5 -21.5t156.5 -59t145 -99.5t119.5 -136.5t81.5 -175.5t30 -212q0 -136 -43 -256t-113.5 -205t-160.5 -146.5t-185.5 -91.5
t-185.5 -30z" />
    <glyph glyph-name="omacron" unicode="&#x14d;" horiz-adv-x="1271" 
d="M311 1393h650v-72h-650v72zM596 1044v-12q-63 -7 -96.5 -52.5t-49.5 -154t-16 -309.5q0 -195 15.5 -305.5t50 -161.5t96.5 -57v-12q-72 0 -144 22.5t-137.5 68t-116.5 108t-81.5 150t-30.5 187.5t30 186.5t80.5 148t116.5 105.5t138 65.5t145 22.5zM678 1044
q72 0 144 -21.5t137.5 -65.5t116 -105.5t80.5 -148.5t30 -187q0 -123 -46 -227t-120 -170t-163 -102.5t-179 -36.5v12q91 9 125.5 122.5t34.5 401.5q0 202 -16 311t-49 154t-95 51v12z" />
    <glyph glyph-name="Ohungarumlaut" unicode="&#x150;" horiz-adv-x="1675" 
d="M442 1499l-6 12q207 170 350 394l150 -138q-103 -96 -232.5 -165.5t-261.5 -102.5zM848 1499l-6 12q207 170 350 394l149 -138q-103 -96 -232 -165.5t-261 -102.5zM786 -20q-90 0 -185.5 30t-185.5 91.5t-160.5 146.5t-113.5 205t-43 256q0 112 30 212t81.5 175.5
t119.5 136.5t145 99.5t156.5 59t155.5 21.5v-12q-62 -6 -110 -40.5t-89.5 -109.5t-64 -212t-22.5 -330q0 -153 15.5 -274t41.5 -200t63 -133t77.5 -79t88.5 -31v-12zM889 -20v12q60 7 109.5 47t90.5 120.5t64 220.5t23 329q0 193 -22.5 330t-64.5 212t-90 109.5t-110 40.5
v12q76 -1 155.5 -21.5t156.5 -59t145 -99.5t119.5 -136.5t81.5 -175.5t30 -212q0 -136 -43 -256t-113.5 -205t-160.5 -146.5t-185.5 -91.5t-185.5 -30z" />
    <glyph glyph-name="ohungarumlaut" unicode="&#x151;" horiz-adv-x="1271" 
d="M262 1120l-8 10q149 207 235 469l181 -92q-74 -120 -181 -221t-227 -166zM610 1120l-8 10q151 210 236 469l180 -92q-74 -120 -181 -221t-227 -166zM596 1044v-12q-63 -7 -96.5 -52.5t-49.5 -154t-16 -309.5q0 -195 15.5 -305.5t50 -161.5t96.5 -57v-12q-72 0 -144 22.5
t-137.5 68t-116.5 108t-81.5 150t-30.5 187.5t30 186.5t80.5 148t116.5 105.5t138 65.5t145 22.5zM678 1044q72 0 144 -21.5t137.5 -65.5t116 -105.5t80.5 -148.5t30 -187q0 -123 -46 -227t-120 -170t-163 -102.5t-179 -36.5v12q91 9 125.5 122.5t34.5 401.5q0 202 -16 311
t-49 154t-95 51v12z" />
    <glyph glyph-name="OE" unicode="&#x152;" horiz-adv-x="2189" 
d="M786 0q-91 0 -185.5 28t-185 86.5t-161 140.5t-113.5 200t-43 254q0 112 30 210.5t81.5 171.5t119.5 131.5t145 95t156 55.5t156 20v-13q-49 -5 -88.5 -24t-77.5 -65.5t-63.5 -118.5t-41 -189.5t-15.5 -273.5q0 -663 286 -697v-12zM889 0v12q58 0 105.5 50t47.5 96v1095
q0 47 -42.5 87t-110.5 40v13h502v-1393h-502zM2040 1014q-57 132 -124 206.5t-166 112t-257 47.5v13h563v-379h-16zM1876 532q-50 86 -113.5 125.5t-156.5 47.5l-113 10v12l113 10q92 8 156 48.5t114 127.5h16v-381h-16zM1493 0v12q235 15 359.5 95t207.5 272h17v-379h-584z
" />
    <glyph glyph-name="oe" unicode="&#x153;" horiz-adv-x="1904" 
d="M86 516q0 100 30 186.5t80.5 148t116.5 105.5t138 65.5t145 22.5v-12q-63 -7 -96.5 -52.5t-49.5 -154t-16 -309.5q0 -195 15.5 -305.5t50 -161.5t96.5 -57v-12q-72 0 -144 22.5t-137.5 68t-116.5 108t-81.5 150t-30.5 187.5zM1186 524q0 -216 86.5 -336t226.5 -120
q87 0 157 25.5t142 82.5v-12q-73 -93 -196 -138.5t-238 -45.5q-97 0 -189 33.5t-163 97.5q-71 -63 -158.5 -97t-175.5 -34v12q91 9 125.5 122.5t34.5 401.5q0 202 -16 311t-49 154t-95 51v12q88 0 175.5 -32t156.5 -92q69 60 155 92t174 32v-12q-62 -7 -94 -53t-45.5 -150.5
t-13.5 -304.5zM1421 1044q97 0 176 -32t127 -83.5t73.5 -112t25.5 -120.5q0 -49 -11 -106h-514v12q137 0 196.5 51t59.5 178q0 79 -34 135.5t-99 65.5v12z" />
    <glyph glyph-name="Racute" unicode="&#x154;" horiz-adv-x="1521" 
d="M844 1903l176 -174q-201 -201 -524 -234v10q100 71 191.5 177.5t156.5 220.5zM590 117q0 -105 155 -105v-12h-657v12q154 0 154 105v1161q0 49 -34 75.5t-120 26.5v13h502v-1276zM1532 145h12q-24 -82 -105 -123.5t-198 -41.5q-77 0 -136 21t-95 54t-60.5 81.5
t-34.5 95.5t-14 104q-3 43 -6 70t-9.5 62.5t-15.5 58t-24 48t-36 41t-50.5 28t-67.5 18.5v12q135 0 204 102.5t69 265.5q0 172 -66.5 255t-206.5 83v13q320 0 470.5 -81t150.5 -270q0 -167 -120.5 -264t-348.5 -110q108 -5 187.5 -25.5t126.5 -48.5t76.5 -73t41 -86
t18.5 -99q16 -130 50.5 -206.5t85.5 -76.5q52 0 102 92z" />
    <glyph glyph-name="racute" unicode="&#x155;" horiz-adv-x="1130" 
d="M344 1118l-4 10q79 95 140.5 220.5t94.5 253.5l216 -123q-143 -244 -447 -361zM541 1044v-927q0 -105 153 -105v-12h-645v12q84 0 119 30t35 75v727q0 57 -33.5 82.5t-118.5 25.5v13q296 0 490 79zM874 1044q103 0 161.5 -62.5t58.5 -158.5q0 -103 -62.5 -168t-148.5 -65
q-83 0 -117 45q80 41 80 139q0 46 -31.5 78.5t-83.5 32.5q-78 0 -123 -78v16q30 100 101 160.5t165 60.5z" />
    <glyph glyph-name="Rcommaaccent" unicode="&#x156;" horiz-adv-x="1521" 
d="M745 12v-12h-657v12q154 0 154 105v1161q0 49 -34 75.5t-120 26.5v13h502v-1276q0 -105 155 -105zM1532 145h12q-24 -82 -105 -123.5t-198 -41.5q-77 0 -136 21t-95 54t-60.5 81.5t-34.5 95.5t-14 104q-3 43 -6 70t-9.5 62.5t-15.5 58t-24 48t-36 41t-50.5 28t-67.5 18.5
v12q135 0 204 102.5t69 265.5q0 172 -66.5 255t-206.5 83v13q320 0 470.5 -81t150.5 -270q0 -167 -120.5 -264t-348.5 -110q108 -5 187.5 -25.5t126.5 -48.5t76.5 -73t41 -86t18.5 -99q16 -130 50.5 -206.5t85.5 -76.5q52 0 102 92zM764 -90q84 0 144.5 -53t60.5 -144
q0 -115 -118.5 -219.5t-301.5 -128.5l-2 6q178 99 178 258q0 52 -29.5 85.5t-68.5 33.5q-40 0 -66 -33q0 90 58.5 142.5t144.5 52.5z" />
    <glyph glyph-name="rcommaaccent" unicode="&#x157;" horiz-adv-x="1130" 
d="M541 1044v-927q0 -105 153 -105v-12h-645v12q84 0 119 30t35 75v727q0 57 -33.5 82.5t-118.5 25.5v13q296 0 490 79zM874 1044q103 0 161.5 -62.5t58.5 -158.5q0 -103 -62.5 -168t-148.5 -65q-83 0 -117 45q80 41 80 139q0 46 -31.5 78.5t-83.5 32.5q-78 0 -123 -78v16
q30 100 101 160.5t165 60.5zM356 -635l-2 6q178 99 178 258q0 52 -29.5 85.5t-68.5 33.5t-65 -33q0 90 58 142.5t144 52.5q84 0 144.5 -53t60.5 -144q0 -115 -118.5 -219.5t-301.5 -128.5z" />
    <glyph glyph-name="Rcaron" unicode="&#x158;" horiz-adv-x="1521" 
d="M731 1507q-80 197 -317 371l6 12q205 -44 348 -172q143 128 348 172l6 -12q-234 -172 -317 -371h-74zM590 117q0 -105 155 -105v-12h-657v12q154 0 154 105v1161q0 49 -34 75.5t-120 26.5v13h502v-1276zM1532 145h12q-24 -82 -105 -123.5t-198 -41.5q-77 0 -136 21
t-95 54t-60.5 81.5t-34.5 95.5t-14 104q-3 43 -6 70t-9.5 62.5t-15.5 58t-24 48t-36 41t-50.5 28t-67.5 18.5v12q135 0 204 102.5t69 265.5q0 172 -66.5 255t-206.5 83v13q320 0 470.5 -81t150.5 -270q0 -167 -120.5 -264t-348.5 -110q108 -5 187.5 -25.5t126.5 -48.5
t76.5 -73t41 -86t18.5 -99q16 -130 50.5 -206.5t85.5 -76.5q52 0 102 92z" />
    <glyph glyph-name="rcaron" unicode="&#x159;" horiz-adv-x="1130" 
d="M528 1155q-118 242 -358 418l6 12q241 -47 389 -176q77 67 180 112.5t209 63.5l7 -12q-239 -175 -359 -418h-74zM541 117q0 -105 153 -105v-12h-645v12q84 0 119 30t35 75v727q0 57 -33.5 82.5t-118.5 25.5v13q296 0 490 79v-927zM874 1044q103 0 161.5 -62.5
t58.5 -158.5q0 -103 -62.5 -168t-148.5 -65q-83 0 -117 45q80 41 80 139q0 46 -31.5 78.5t-83.5 32.5q-78 0 -123 -78v16q30 100 101 160.5t165 60.5z" />
    <glyph glyph-name="Sacute" unicode="&#x15a;" horiz-adv-x="1316" 
d="M745 1903l177 -174q-201 -201 -525 -234v10q100 71 191.5 177.5t156.5 220.5zM428 1212q0 -57 27 -108t72 -91.5t103.5 -78t123.5 -72.5t130 -70.5t123.5 -76.5t103.5 -86.5t72 -104.5t27 -125q0 -195 -136 -302.5t-378 -116.5v12q95 17 159.5 70t64.5 139q0 57 -27 108
t-72 90.5t-104 77t-124 72t-129.5 69.5t-123.5 75.5t-104 85.5t-72 104t-27 125q0 179 130 285t341 120v-12q-77 -13 -128.5 -61t-51.5 -128zM696 1413q232 -9 369 -108l74 108h16v-457h-16q-50 163 -171.5 285.5t-271.5 159.5v12zM143 479q108 -368 465 -487v-12
q-246 6 -397 100l-68 -100h-16v499h16z" />
    <glyph glyph-name="sacute" unicode="&#x15b;" horiz-adv-x="1118" 
d="M338 1118l-4 10q79 95 140.5 220.5t94.5 253.5l215 -123q-143 -245 -446 -361zM510 1044v-12q-65 -12 -107 -45.5t-41 -91.5q1 -38 24.5 -72.5t62.5 -62t89.5 -54.5t105.5 -53t110.5 -53t105.5 -59t88.5 -67.5t61 -82t22.5 -98.5q0 -146 -114.5 -225.5t-317.5 -87.5v12
q37 6 65.5 15t57 25.5t44 44.5t15.5 66q0 43 -37 83.5t-96 75t-130.5 69.5t-143.5 74t-131 81.5t-96 99t-37 119.5q0 132 111 211.5t288 87.5zM600 1044q175 -9 284 -66.5t109 -143.5q0 -52 -39.5 -89.5t-111.5 -37.5q-64 0 -108.5 26t-65.5 72q44 3 69 30.5t23 65.5
q0 45 -49 84t-111 47v12zM262 334q60 0 108 -25t72 -65q-51 -2 -82.5 -30t-31.5 -73q0 -53 43 -96t139 -53v-12q-204 7 -313 60t-109 142q0 68 51 110t123 42z" />
    <glyph glyph-name="Scedilla" unicode="&#x15e;" horiz-adv-x="1316" 
d="M1210 399q0 -185 -121.5 -292t-332.5 -125l-78 -107q144 3 231.5 -52.5t87.5 -156.5q0 -105 -85 -172t-199 -67q-71 0 -139.5 30t-106.5 86l14 8q63 -57 146 -57q61 0 105 42.5t44 109.5q0 68 -64 112.5t-143 44.5l156 195q195 46 195 203q0 57 -27 108t-72 90.5t-104 77
t-124 72t-129.5 69.5t-123.5 75.5t-104 85.5t-72 104t-27 125q0 179 130 285t341 120v-12q-77 -13 -128.5 -61t-51.5 -128q0 -57 27 -108t72 -91.5t103.5 -78t123.5 -72.5t130 -70.5t123.5 -76.5t103.5 -86.5t72 -104.5t27 -125zM1139 956q-50 163 -171.5 285.5
t-271.5 159.5v12q232 -9 369 -108l74 108h16v-457h-16zM608 -20q-246 6 -397 100l-68 -100h-16v499h16q108 -368 465 -487v-12z" />
    <glyph glyph-name="scedilla" unicode="&#x15f;" horiz-adv-x="1118" 
d="M1032 293q0 -141 -107 -220t-298 -91l-101 -107q143 3 228.5 -52.5t85.5 -156.5q0 -105 -85.5 -172t-199.5 -67q-71 0 -139.5 30t-106.5 86l15 8q63 -57 145 -57q61 0 105 42.5t44 109.5q0 69 -63.5 113t-142.5 44l188 189q37 6 65.5 15t57 25.5t44 44.5t15.5 66
q0 43 -37 83.5t-96 75t-130.5 69.5t-143.5 74t-131 81.5t-96 99t-37 119.5q0 132 111 211.5t288 87.5v-12q-65 -12 -107 -45.5t-41 -91.5q1 -38 24.5 -72.5t62.5 -62t89.5 -54.5t105.5 -53t110.5 -53t105.5 -59t88.5 -67.5t61 -82t22.5 -98.5zM760 901q0 45 -49 84t-111 47
v12q175 -9 284 -66.5t109 -143.5q0 -52 -39.5 -89.5t-111.5 -37.5q-64 0 -108.5 26t-65.5 72q44 3 69 30.5t23 65.5zM510 -8v-12q-204 7 -313 60t-109 142q0 68 51 110t123 42q60 0 108 -25t72 -65q-51 -2 -82.5 -30t-31.5 -73q0 -53 43 -96t139 -53z" />
    <glyph glyph-name="Scaron" unicode="&#x160;" horiz-adv-x="1316" 
d="M633 1507q-80 196 -318 371l7 12q205 -44 348 -172q143 128 348 172l6 -12q-234 -172 -317 -371h-74zM428 1212q0 -57 27 -108t72 -91.5t103.5 -78t123.5 -72.5t130 -70.5t123.5 -76.5t103.5 -86.5t72 -104.5t27 -125q0 -195 -136 -302.5t-378 -116.5v12q95 17 159.5 70
t64.5 139q0 57 -27 108t-72 90.5t-104 77t-124 72t-129.5 69.5t-123.5 75.5t-104 85.5t-72 104t-27 125q0 179 130 285t341 120v-12q-77 -13 -128.5 -61t-51.5 -128zM696 1413q232 -9 369 -108l74 108h16v-457h-16q-50 163 -171.5 285.5t-271.5 159.5v12zM143 479
q108 -368 465 -487v-12q-246 6 -397 100l-68 -100h-16v499h16z" />
    <glyph glyph-name="scaron" unicode="&#x161;" horiz-adv-x="1118" 
d="M522 1155q-118 242 -358 418l6 12q241 -47 389 -176q77 67 180 112.5t209 63.5l6 -12q-238 -174 -358 -418h-74zM362 895q1 -38 24.5 -72.5t62.5 -62t89.5 -54.5t105.5 -53t110.5 -53t105.5 -59t88.5 -67.5t61 -82t22.5 -98.5q0 -146 -114.5 -225.5t-317.5 -87.5v12
q37 6 65.5 15t57 25.5t44 44.5t15.5 66q0 43 -37 83.5t-96 75t-130.5 69.5t-143.5 74t-131 81.5t-96 99t-37 119.5q0 132 111 211.5t288 87.5v-12q-65 -12 -107 -45.5t-41 -91.5zM668 805q44 3 69 30.5t23 65.5q0 45 -49 84t-111 47v12q175 -9 284 -66.5t109 -143.5
q0 -52 -39.5 -89.5t-111.5 -37.5q-64 0 -108.5 26t-65.5 72zM328 141q0 -53 43 -96t139 -53v-12q-204 7 -313 60t-109 142q0 68 51 110t123 42q60 0 108 -25t72 -65q-51 -2 -82.5 -30t-31.5 -73z" />
    <glyph glyph-name="uni0162" unicode="&#x162;" horiz-adv-x="1376" 
d="M412 1393v-13q-116 -29 -204.5 -150t-127.5 -292h-17v455h349zM862 121q0 -109 154 -109v-12h-264l-105 -123q143 3 228.5 -54t85.5 -163q0 -109 -85.5 -178.5t-199.5 -69.5q-70 0 -139 32t-107 89l14 8q62 -59 146 -59q61 0 105 44t44 114t-64.5 116.5t-142.5 46.5
l177 197h-349v12q154 0 154 109v1272h348v-1272zM965 1393h348v-455h-17q-39 171 -127.5 292.5t-203.5 149.5v13z" />
    <glyph glyph-name="uni0163" unicode="&#x163;" horiz-adv-x="843" 
d="M649 53q90 0 195 105v-13q-51 -73 -144.5 -119t-205.5 -46h-19l-94 -107q143 3 228 -52.5t85 -156.5q0 -105 -85 -172t-199 -67q-71 0 -139.5 30t-106.5 86l14 8q63 -57 146 -57q61 0 105 42.5t44 109.5q0 68 -64 112.5t-143 44.5l168 183q-120 13 -188 83t-68 201v672
h-106l22 31h84v221q203 0 336 115v-336h277l-23 -31h-254v-678q0 -86 34 -147.5t101 -61.5z" />
    <glyph glyph-name="Tcaron" unicode="&#x164;" horiz-adv-x="1376" 
d="M662 1507q-80 196 -318 371l6 12q205 -44 348 -172q143 128 349 172l6 -12q-236 -173 -318 -371h-73zM412 1393v-13q-116 -29 -204.5 -150t-127.5 -292h-17v455h349zM862 121q0 -109 154 -109v-12h-656v12q154 0 154 109v1272h348v-1272zM965 1393h348v-455h-17
q-39 171 -127.5 292.5t-203.5 149.5v13z" />
    <glyph glyph-name="tcaron" unicode="&#x165;" horiz-adv-x="843" 
d="M895 1608q-8 -169 -75 -315t-187 -246h-12q67 212 67 561h207zM514 262q0 -86 34 -147.5t101 -61.5q90 0 195 105v-13q-51 -73 -144.5 -119t-205.5 -46q-146 0 -231 70.5t-85 217.5v672h-106l22 31h84v221q203 0 336 115v-336h277l-23 -31h-254v-678z" />
    <glyph glyph-name="Tbar" unicode="&#x166;" horiz-adv-x="1376" 
d="M412 1393v-13q-116 -29 -204.5 -150t-127.5 -292h-17v455h349zM862 1393v-711h232v-51h-232v-510q0 -109 154 -109v-12h-656v12q154 0 154 109v510h-229v51h229v711h348zM965 1393h348v-455h-17q-39 171 -127.5 292.5t-203.5 149.5v13z" />
    <glyph glyph-name="tbar" unicode="&#x167;" horiz-adv-x="843" 
d="M649 53q90 0 195 105v-13q-51 -73 -144.5 -119t-205.5 -46q-146 0 -231 70.5t-85 217.5v328h-102v31h102v313h-106l22 31h84v221q203 0 336 115v-336h277l-23 -31h-254v-313h254v-31h-254v-334q0 -86 34 -147.5t101 -61.5z" />
    <glyph glyph-name="Utilde" unicode="&#x168;" horiz-adv-x="1523" 
d="M449 1524q-25 22 -41.5 60.5t-16.5 78.5q0 76 49 125t152 49q70 0 154.5 -28.5t161 -56.5t124.5 -28q42 0 64 18t22 48q0 26 -33 65h13q25 -22 41 -59t16 -74q0 -77 -48 -128.5t-153 -51.5q-56 0 -122 17.5t-116 39t-106.5 39t-95.5 17.5q-42 0 -64 -18t-22 -48
q0 -26 33 -65h-12zM211 389v887q0 104 -154 104v13h656v-13q-154 0 -154 -104v-893q0 -103 19 -185.5t64 -140t112 -65.5v-12q-124 0 -220.5 23.5t-156 61.5t-98 92.5t-53.5 110.5t-15 121zM1286 1124v-735q0 -79 -24.5 -150t-74 -130t-135 -94t-196.5 -35v12q96 2 172 35.5
t122.5 88.5t70.5 123t24 144v741q0 105 -54.5 180.5t-150.5 75.5v13h451v-13q-96 0 -150.5 -76t-54.5 -180z" />
    <glyph glyph-name="utilde" unicode="&#x169;" horiz-adv-x="1398" 
d="M375 1186q-25 22 -41.5 60.5t-16.5 78.5q0 76 49 125t152 49q70 0 154.5 -28.5t161 -56.5t124.5 -28q42 0 64 18t22 48q0 28 -32 66h12q25 -22 41 -59.5t16 -74.5q0 -78 -48 -129t-152 -51q-56 0 -122 17.5t-116 39t-107 39t-96 17.5q-42 0 -64 -18t-22 -48q0 -26 33 -65
h-12zM518 1044v-776q0 -88 33 -131t108 -43q81 0 142 64v-13q-39 -72 -120 -118.5t-198 -46.5q-144 0 -223.5 70.5t-79.5 217.5v576q0 57 -33 82.5t-118 25.5v13q295 0 489 79zM1200 1044v-907q0 -84 55 -84q49 0 99 92h12q-24 -82 -98.5 -123.5t-180.5 -41.5t-165.5 54.5
t-59.5 145.5v664q0 57 -32 82.5t-113 25.5v13q139 0 247 17.5t236 61.5z" />
    <glyph glyph-name="Umacron" unicode="&#x16a;" horiz-adv-x="1523" 
d="M449 1731h649v-72h-649v72zM211 389v887q0 104 -154 104v13h656v-13q-154 0 -154 -104v-893q0 -103 19 -185.5t64 -140t112 -65.5v-12q-124 0 -220.5 23.5t-156 61.5t-98 92.5t-53.5 110.5t-15 121zM1286 1124v-735q0 -79 -24.5 -150t-74 -130t-135 -94t-196.5 -35v12
q96 2 172 35.5t122.5 88.5t70.5 123t24 144v741q0 105 -54.5 180.5t-150.5 75.5v13h451v-13q-96 0 -150.5 -76t-54.5 -180z" />
    <glyph glyph-name="umacron" unicode="&#x16b;" horiz-adv-x="1398" 
d="M375 1393h649v-72h-649v72zM518 1044v-776q0 -88 33 -131t108 -43q81 0 142 64v-13q-39 -72 -120 -118.5t-198 -46.5q-144 0 -223.5 70.5t-79.5 217.5v576q0 57 -33 82.5t-118 25.5v13q295 0 489 79zM1200 1044v-907q0 -84 55 -84q49 0 99 92h12q-24 -82 -98.5 -123.5
t-180.5 -41.5t-165.5 54.5t-59.5 145.5v664q0 57 -32 82.5t-113 25.5v13q139 0 247 17.5t236 61.5z" />
    <glyph glyph-name="Uring" unicode="&#x16e;" horiz-adv-x="1523" 
d="M774 1487q-88 0 -149.5 60.5t-61.5 148.5t61.5 148.5t149.5 60.5t149.5 -60.5t61.5 -148.5t-61.5 -148.5t-149.5 -60.5zM774 1573q51 0 86 35.5t35 87.5q0 54 -35 89.5t-86 35.5t-86 -35.5t-35 -89.5q0 -52 35 -87.5t86 -35.5zM211 389v887q0 104 -154 104v13h656v-13
q-154 0 -154 -104v-893q0 -103 19 -185.5t64 -140t112 -65.5v-12q-124 0 -220.5 23.5t-156 61.5t-98 92.5t-53.5 110.5t-15 121zM1286 1124v-735q0 -79 -24.5 -150t-74 -130t-135 -94t-196.5 -35v12q96 2 172 35.5t122.5 88.5t70.5 123t24 144v741q0 105 -54.5 180.5
t-150.5 75.5v13h451v-13q-96 0 -150.5 -76t-54.5 -180z" />
    <glyph glyph-name="uring" unicode="&#x16f;" horiz-adv-x="1398" 
d="M700 1141q-88 0 -149.5 60.5t-61.5 148.5t61.5 148.5t149.5 60.5t149.5 -60.5t61.5 -148.5t-61.5 -148.5t-149.5 -60.5zM700 1227q51 0 86 35.5t35 87.5q0 54 -35 89.5t-86 35.5t-85.5 -35.5t-34.5 -89.5q0 -52 34.5 -87.5t85.5 -35.5zM518 1044v-776q0 -88 33 -131
t108 -43q81 0 142 64v-13q-39 -72 -120 -118.5t-198 -46.5q-144 0 -223.5 70.5t-79.5 217.5v576q0 57 -33 82.5t-118 25.5v13q295 0 489 79zM1200 1044v-907q0 -84 55 -84q49 0 99 92h12q-24 -82 -98.5 -123.5t-180.5 -41.5t-165.5 54.5t-59.5 145.5v664q0 57 -32 82.5
t-113 25.5v13q139 0 247 17.5t236 61.5z" />
    <glyph glyph-name="Uhungarumlaut" unicode="&#x170;" horiz-adv-x="1523" 
d="M379 1499l-6 12q207 170 350 394l149 -138q-103 -96 -232 -165.5t-261 -102.5zM784 1499l-6 12q207 170 350 394l150 -138q-103 -96 -232.5 -165.5t-261.5 -102.5zM211 389v887q0 104 -154 104v13h656v-13q-154 0 -154 -104v-893q0 -103 19 -185.5t64 -140t112 -65.5v-12
q-124 0 -220.5 23.5t-156 61.5t-98 92.5t-53.5 110.5t-15 121zM1286 1124v-735q0 -79 -24.5 -150t-74 -130t-135 -94t-196.5 -35v12q96 2 172 35.5t122.5 88.5t70.5 123t24 144v741q0 105 -54.5 180.5t-150.5 75.5v13h451v-13q-96 0 -150.5 -76t-54.5 -180z" />
    <glyph glyph-name="uhungarumlaut" unicode="&#x171;" horiz-adv-x="1398" 
d="M326 1120l-9 10q151 210 236 469l180 -92q-74 -120 -180.5 -221t-226.5 -166zM674 1120l-8 10q149 207 235 469l180 -92q-74 -120 -180.5 -221t-226.5 -166zM518 1044v-776q0 -88 33 -131t108 -43q81 0 142 64v-13q-39 -72 -120 -118.5t-198 -46.5q-144 0 -223.5 70.5
t-79.5 217.5v576q0 57 -33 82.5t-118 25.5v13q295 0 489 79zM1200 1044v-907q0 -84 55 -84q49 0 99 92h12q-24 -82 -98.5 -123.5t-180.5 -41.5t-165.5 54.5t-59.5 145.5v664q0 57 -32 82.5t-113 25.5v13q139 0 247 17.5t236 61.5z" />
    <glyph glyph-name="Uogonek" unicode="&#x172;" horiz-adv-x="1523" 
d="M754 -20q-124 0 -220.5 23.5t-156 61.5t-98 92.5t-53.5 110.5t-15 121v887q0 104 -154 104v13h656v-13q-154 0 -154 -104v-893q0 -103 19 -185.5t64 -140t112 -65.5v-12zM838 -512q-84 0 -144.5 53t-60.5 144q0 42 22 81.5t54 70t90.5 66t108 60.5t130.5 62
q89 41 148 139t59 219v741q0 105 -54.5 180.5t-150.5 75.5v13h451v-13q-96 0 -150.5 -76t-54.5 -180v-735q0 -135 -71 -238t-193 -157q-145 -65 -145 -199q0 -69 29 -107t69 -38q39 0 65 33q0 -90 -58 -142.5t-144 -52.5z" />
    <glyph glyph-name="uogonek" unicode="&#x173;" horiz-adv-x="1398" 
d="M659 94q81 0 142 64v-13q-39 -72 -120 -118.5t-198 -46.5q-144 0 -223.5 70.5t-79.5 217.5v576q0 57 -33 82.5t-118 25.5v13q295 0 489 79v-776q0 -88 33 -131t108 -43zM1282 31q-96 -73 -137 -135t-41 -127q0 -52 29.5 -85.5t68.5 -33.5q40 0 66 33q0 -90 -58.5 -142.5
t-144.5 -52.5q-84 0 -144.5 53t-60.5 144q0 170 297 299q-46 -4 -70 -4q-106 0 -165.5 54.5t-59.5 145.5v664q0 57 -32 82.5t-113 25.5v13q139 0 247 17.5t236 61.5v-907q0 -84 55 -84q49 0 99 92h12q-20 -70 -84 -114z" />
    <glyph glyph-name="Wcircumflex" unicode="&#x174;" horiz-adv-x="2123" 
d="M1116 1667q-143 -128 -348 -172l-6 12q237 174 317 371h74q83 -199 317 -371l-6 -12q-205 44 -348 172zM659 1380q-74 0 -107.5 -45.5t-2.5 -122.5l305 -749l-188 -483h-23l-518 1294q-24 59 -66 82.5t-118 23.5v13h718v-13zM1477 1380q-74 0 -108 -46t-3 -122l305 -749
l-188 -483h-23l-399 997l-139 -344l-9 18q107 289 107 391q0 28 -12 70l-66 162q-24 59 -66 82.5t-118 23.5v13h719v-13zM1624 1393h545v-9q-68 0 -120 -57.5t-97 -169.5l-213 -524l-8 18q38 108 57 210.5t21.5 154t2.5 141.5q0 109 -51.5 166t-136.5 57v13z" />
    <glyph glyph-name="wcircumflex" unicode="&#x175;" horiz-adv-x="1843" 
d="M918 1317q-148 -128 -390 -176l-6 12q241 177 359 418h73q120 -243 359 -418l-6 -12q-106 18 -209 63.5t-180 112.5zM557 1012q-54 0 -72.5 -33.5t7.5 -87.5l268 -559l-176 -332h-13l-475 940q-33 72 -112 72v12h573v-12zM1231 1012q-54 0 -73 -33.5t7 -87.5l269 -559
l-177 -332h-12l-321 637l-66 -123l-12 18q25 52 30.5 117.5t-14.5 110.5l-92 180q-33 72 -113 72v12h574v-12zM1368 1024h510v-12q-49 0 -76.5 -21t-56.5 -76l-213 -401l-12 18q57 107 57 265q0 92 -53 153.5t-156 61.5v12z" />
    <glyph glyph-name="Ycircumflex" unicode="&#x176;" horiz-adv-x="1413" 
d="M696 1667q-143 -128 -348 -172l-6 12q237 174 317 371h74q82 -198 318 -371l-7 -12q-205 44 -348 172zM889 117q0 -105 153 -105v-12h-655v12q154 0 154 105v375l-404 788q-26 51 -56.5 75.5t-86.5 24.5v13h641v-13q-43 0 -68.5 -18.5t-25.5 -52.5q0 -27 23 -76t146 -288
q104 -203 179 -349v-479zM831 1393h601v-13q-46 0 -77 -25t-61 -73l-305 -530l-8 14q45 88 65 131t37 110t17 138q0 102 -82 168.5t-187 66.5v13z" />
    <glyph glyph-name="ycircumflex" unicode="&#x177;" horiz-adv-x="1169" 
d="M582 1317q-148 -129 -389 -176l-7 12q241 177 359 418h73q120 -243 359 -418l-6 -12q-106 18 -209 63.5t-180 112.5zM563 1012q-54 0 -72.5 -33.5t7.5 -87.5l268 -559l-176 -332h-12l-476 940q-33 72 -112 72v12h573v-12zM700 1024h510v-12q-49 0 -75.5 -21t-57.5 -76
l-213 -401l-12 18q57 107 57 265q0 92 -53 153.5t-156 61.5v12zM305 -326q51 0 96.5 49t110.5 158h14q-13 -24 -36 -68.5t-35.5 -67t-33 -59.5t-34 -56.5t-33.5 -46.5t-36.5 -41t-37 -28t-42.5 -20t-45 -6q-84 0 -132.5 51t-48.5 131q0 66 49 118t132 75q-9 -27 -9 -51
q-2 -60 30.5 -99t90.5 -39z" />
    <glyph glyph-name="Ydieresis" unicode="&#x178;" horiz-adv-x="1413" 
d="M428 1530q-77 0 -126.5 46t-49.5 120q0 68 49 111.5t125 43.5q79 0 129.5 -43t50.5 -112q0 -74 -50.5 -120t-127.5 -46zM967 1530q-77 0 -126.5 46t-49.5 120q0 69 49.5 112t126.5 43t125.5 -43t48.5 -112q0 -75 -48.5 -120.5t-125.5 -45.5zM889 117q0 -105 153 -105v-12
h-655v12q154 0 154 105v375l-404 788q-26 51 -56.5 75.5t-86.5 24.5v13h641v-13q-43 0 -68.5 -18.5t-25.5 -52.5q0 -27 23 -76t146 -288q104 -203 179 -349v-479zM831 1393h601v-13q-46 0 -77 -25t-61 -73l-305 -530l-8 14q45 88 65 131t37 110t17 138q0 102 -82 168.5
t-187 66.5v13z" />
    <glyph glyph-name="Zacute" unicode="&#x179;" horiz-adv-x="1370" 
d="M393 1495v10q100 71 191.5 177.5t156.5 220.5l177 -174q-201 -201 -525 -234zM68 0l811 1393h391l-813 -1393h-389zM127 899v494h618l-6 -13q-224 -12 -390.5 -149t-205.5 -332h-16zM590 0l6 12q235 21 406 163.5t233 383.5h16v-559h-661z" />
    <glyph glyph-name="zacute" unicode="&#x17a;" horiz-adv-x="1163" 
d="M360 1118l-4 10q79 96 141 221.5t95 252.5l215 -123q-143 -244 -447 -361zM57 0l652 1024h362l-645 -1024h-369zM111 662v362h475l-8 -12q-101 0 -198.5 -46t-167 -127t-89.5 -177h-12zM549 0l8 12q163 0 315 121.5t181 286.5h12v-420h-516z" />
    <glyph glyph-name="Zdotaccent" unicode="&#x17b;" horiz-adv-x="1370" 
d="M659 1532q-77 0 -126.5 46t-49.5 120q0 68 49 111.5t125 43.5q79 0 130 -43.5t51 -111.5q0 -74 -50.5 -120t-128.5 -46zM68 0l811 1393h391l-813 -1393h-389zM127 899v494h618l-6 -13q-224 -12 -390.5 -149t-205.5 -332h-16zM590 0l6 12q235 21 406 163.5t233 383.5h16
v-559h-661z" />
    <glyph glyph-name="zdotaccent" unicode="&#x17c;" horiz-adv-x="1163" 
d="M582 1171q-93 0 -151 50t-58 131q0 79 58 128.5t151 49.5t151 -49.5t58 -128.5q0 -81 -58 -131t-151 -50zM57 0l652 1024h362l-645 -1024h-369zM111 662v362h475l-8 -12q-101 0 -198.5 -46t-167 -127t-89.5 -177h-12zM549 0l8 12q163 0 315 121.5t181 286.5h12v-420h-516
z" />
    <glyph glyph-name="Zcaron" unicode="&#x17d;" horiz-adv-x="1370" 
d="M629 1507q-80 196 -318 371l6 12q206 -44 349 -172q143 128 348 172l6 -12q-236 -173 -318 -371h-73zM879 1393h391l-813 -1393h-389zM739 1380q-224 -12 -390.5 -149t-205.5 -332h-16v494h618zM596 12q235 21 406 163.5t233 383.5h16v-559h-661z" />
    <glyph glyph-name="zcaron" unicode="&#x17e;" horiz-adv-x="1163" 
d="M545 1155q-118 241 -359 418l7 12q241 -47 389 -176q77 67 180 112.5t209 63.5l6 -12q-239 -175 -359 -418h-73zM709 1024h362l-645 -1024h-369zM578 1012q-101 0 -198.5 -46t-167 -127t-89.5 -177h-12v362h475zM557 12q163 0 315 121.5t181 286.5h12v-420h-516z" />
    <glyph glyph-name="uni01EA" unicode="&#x1ea;" horiz-adv-x="1675" 
d="M786 -20q-90 0 -185.5 30t-185.5 91.5t-160.5 146.5t-113.5 205t-43 256q0 112 30 212t81.5 175.5t119.5 136.5t145 99.5t156.5 59t155.5 21.5v-12q-62 -6 -110 -40.5t-89.5 -109.5t-64 -212t-22.5 -330q0 -153 15.5 -274t41.5 -200t63 -133t77.5 -79t88.5 -31v-12z
M854 -512q-84 0 -144.5 53t-60.5 144q0 52 24 98.5t64.5 82t85 61t95.5 44.5q258 101 258 738q0 193 -22.5 330t-64.5 212t-90 109.5t-110 40.5v12q76 -1 155.5 -21.5t156.5 -59t145 -99.5t119.5 -136.5t81.5 -175.5t30 -212q0 -118 -31 -221.5t-81 -178.5t-119.5 -137
t-139.5 -102.5t-149 -69.5q-164 -61 -164 -231q0 -52 29.5 -85.5t68.5 -33.5q40 0 66 33q0 -90 -58.5 -142.5t-144.5 -52.5z" />
    <glyph glyph-name="uni01EB" unicode="&#x1eb;" horiz-adv-x="1271" 
d="M596 -20q-72 0 -144 22.5t-137.5 68t-116.5 108t-81.5 150t-30.5 187.5t30 186.5t80.5 148t116.5 105.5t138 65.5t145 22.5v-12q-63 -7 -96.5 -52.5t-49.5 -154t-16 -309.5q0 -195 15.5 -305.5t50 -161.5t96.5 -57v-12zM670 -512q-84 0 -144.5 53t-60.5 144
q0 78 58.5 150t152.5 116q63 29 97 88.5t49.5 171t15.5 305.5q0 202 -16 311t-49 154t-95 51v12q72 0 144 -21.5t137.5 -65.5t116 -105.5t80.5 -148.5t30 -187q0 -96 -28.5 -180t-76 -143.5t-101 -101t-112.5 -68.5q-50 -22 -83.5 -52.5t-49 -66t-21 -67t-5.5 -68.5
q0 -52 29.5 -85.5t68.5 -33.5t65 33q0 -90 -58 -142.5t-144 -52.5z" />
    <glyph glyph-name="AEacute" unicode="&#x1fc;" horiz-adv-x="2062" 
d="M770 1505q100 71 191.5 177.5t156.5 220.5l176 -174q-201 -201 -524 -234v10zM762 1380v13h502v-1393h-502v12q153 0 153 105v1157q0 106 -153 106zM1913 1014q-57 132 -124 206.5t-166 112t-257 47.5v13h563v-379h-16zM737 504l-383 -12q-78 -183 -78 -256
q0 -54 24.5 -98t63 -70.5t82.5 -41t86 -14.5v-12h-589v8q67 0 122 57t115 171l512 987v-41q-265 -531 -321 -654l360 -12zM1749 532q-50 86 -113.5 125.5t-156.5 47.5l-113 10v12l113 10q92 8 156 48.5t114 127.5h16v-381h-16zM1933 379h17v-379h-584v12q235 15 359.5 95
t207.5 272z" />
    <glyph glyph-name="aeacute" unicode="&#x1fd;" horiz-adv-x="1808" 
d="M1188 1479q-143 -244 -447 -361l-4 10q79 96 141 221.5t95 252.5zM326 659q-81 0 -130 47t-49 111q0 95 90.5 156.5t282.5 70.5v-12q-60 -9 -95.5 -51t-35.5 -96q0 -56 35.5 -89t97.5 -38q-23 -43 -79 -71t-117 -28zM1090 524q0 -216 86.5 -336t226.5 -120q87 0 157 25.5
t142 82.5v-12q-73 -93 -196 -138.5t-238 -45.5q-100 0 -193.5 36t-168 102t-120 169.5t-45.5 228.5v322q0 80 -34 132t-105 62v12q235 -9 350 -96q131 96 291 96v-12q-62 -7 -94 -53t-45.5 -150.5t-13.5 -304.5zM1325 1044q97 0 176 -32t126.5 -83.5t73 -112t25.5 -120.5
q0 -54 -10 -106h-514v12q137 0 196.5 51t59.5 178q0 79 -34 135.5t-99 65.5v12zM551 76q32 -1 58.5 8t52 32.5t39.5 39.5t41 52q7 9 10 13l4 -10q-56 -97 -157 -164t-245 -67q-132 0 -210.5 70t-77.5 192q1 131 109 204.5t284 73.5h221v-12h-62q-106 0 -161.5 -61.5
t-55.5 -161.5q0 -94 33.5 -149.5t116.5 -59.5z" />
    <glyph glyph-name="Oslashacute" unicode="&#x1fe;" horiz-adv-x="1675" 
d="M1223 1903l176 -174q-201 -201 -525 -234v10q100 71 192 177.5t157 220.5zM1360 1221q101 -94 159 -223.5t58 -288.5q0 -136 -43 -256t-113.5 -205t-160.5 -146.5t-185.5 -91.5t-185.5 -30v12q60 7 109.5 47t90.5 120.5t64 220.5t23 329q0 154 -17 290l-624 -677
q35 -162 100.5 -241t150.5 -89v-12q-104 0 -214.5 40.5t-206.5 116.5l-146 -157h-80l183 196q-103 98 -163.5 233.5t-60.5 299.5q0 112 30 212t81.5 175.5t119.5 136.5t145 99.5t156.5 59t155.5 21.5v-12q-62 -6 -110 -40.5t-89.5 -109.5t-64 -212t-22.5 -330
q0 -171 20 -318l627 678q-60 310 -258 332v12q107 0 220.5 -41t209.5 -117l147 158h72z" />
    <glyph glyph-name="oslashacute" unicode="&#x1ff;" horiz-adv-x="1271" 
d="M915 1479q-143 -245 -446 -361l-4 10q79 95 140.5 220.5t94.5 253.5zM1186 1044l-148 -151q148 -148 148 -377q0 -123 -46 -227t-120 -170t-163 -102.5t-179 -36.5v12q91 9 125.5 122.5t34.5 401.5q0 119 -4 168l-392 -403q12 -151 48 -216t106 -73v-12q-85 0 -171 31.5
t-155 90.5l-120 -122h-64l152 155q-152 152 -152 381q0 100 30 186.5t80.5 148t116.5 105.5t138 65.5t145 22.5v-12q-63 -7 -96.5 -52.5t-49.5 -154t-16 -309.5q0 -72 4 -174l393 403q-8 106 -27 167.5t-48.5 88t-77.5 31.5v12q184 0 328 -120l116 120h64z" />
    <glyph glyph-name="Scommaaccent" unicode="&#x218;" horiz-adv-x="1316" 
d="M428 1212q0 -57 27 -108t72 -91.5t103.5 -78t123.5 -72.5t130 -70.5t123.5 -76.5t103.5 -86.5t72 -104.5t27 -125q0 -195 -136 -302.5t-378 -116.5v12q95 17 159.5 70t64.5 139q0 57 -27 108t-72 90.5t-104 77t-124 72t-129.5 69.5t-123.5 75.5t-104 85.5t-72 104
t-27 125q0 179 130 285t341 120v-12q-77 -13 -128.5 -61t-51.5 -128zM1139 956q-50 163 -171.5 285.5t-271.5 159.5v12q232 -9 369 -108l74 108h16v-457h-16zM608 -20q-246 6 -397 100l-68 -100h-16v499h16q108 -368 465 -487v-12zM666 -90q84 0 144 -53t60 -144
q0 -115 -118 -219.5t-301 -128.5l-2 6q178 99 178 258q0 52 -30 85.5t-69 33.5t-65 -33q0 90 58.5 142.5t144.5 52.5z" />
    <glyph glyph-name="scommaaccent" unicode="&#x219;" horiz-adv-x="1118" 
d="M510 1044v-12q-65 -12 -107 -45.5t-41 -91.5q1 -38 24.5 -72.5t62.5 -62t89.5 -54.5t105.5 -53t110.5 -53t105.5 -59t88.5 -67.5t61 -82t22.5 -98.5q0 -146 -114.5 -225.5t-317.5 -87.5v12q37 6 65.5 15t57 25.5t44 44.5t15.5 66q0 43 -37 83.5t-96 75t-130.5 69.5
t-143.5 74t-131 81.5t-96 99t-37 119.5q0 132 111 211.5t288 87.5zM600 1044q175 -9 284 -66.5t109 -143.5q0 -52 -39.5 -89.5t-111.5 -37.5q-64 0 -108.5 26t-65.5 72q44 3 69 30.5t23 65.5q0 45 -49 84t-111 47v12zM262 334q60 0 108 -25t72 -65q-51 -2 -82.5 -30
t-31.5 -73q0 -53 43 -96t139 -53v-12q-204 7 -313 60t-109 142q0 68 51 110t123 42zM350 -635l-2 6q178 99 178 258q0 52 -29.5 85.5t-68.5 33.5q-40 0 -66 -33q0 90 58.5 142.5t144.5 52.5q84 0 144.5 -53t60.5 -144q0 -115 -118.5 -219.5t-301.5 -128.5z" />
    <glyph glyph-name="uni021A" unicode="&#x21a;" horiz-adv-x="1376" 
d="M412 1393v-13q-116 -29 -204.5 -150t-127.5 -292h-17v455h349zM862 121q0 -109 154 -109v-12h-656v12q154 0 154 109v1272h348v-1272zM965 1393h348v-455h-17q-39 171 -127.5 292.5t-203.5 149.5v13zM479 -635l-2 6q178 99 178 258q0 52 -29.5 85.5t-68.5 33.5t-65 -33
q0 90 58 142.5t144 52.5q84 0 144.5 -53t60.5 -144q0 -115 -118.5 -219.5t-301.5 -128.5z" />
    <glyph glyph-name="uni021B" unicode="&#x21b;" horiz-adv-x="843" 
d="M649 53q90 0 195 105v-13q-51 -73 -144.5 -119t-205.5 -46q-146 0 -231 70.5t-85 217.5v672h-106l22 31h84v221q203 0 336 115v-336h277l-23 -31h-254v-678q0 -86 34 -147.5t101 -61.5zM428 -90q84 0 144.5 -53t60.5 -144q0 -115 -118.5 -219.5t-301.5 -128.5l-2 6
q178 99 178 258q0 52 -29.5 85.5t-68.5 33.5q-40 0 -66 -33q0 90 58.5 142.5t144.5 52.5z" />
    <glyph glyph-name="uni0237" unicode="&#x237;" horiz-adv-x="690" 
d="M33 954v13q292 0 489 80v-1108q0 -98 -26.5 -175t-73 -128.5t-113 -85t-143.5 -48t-168 -14.5v12q90 0 138 53.5t48 141.5v1151q0 57 -33 82.5t-118 25.5z" />
    <glyph glyph-name="circumflex" unicode="&#x2c6;" horiz-adv-x="872" 
d="M831 1223l-6 -13q-106 18 -209 63.5t-180 112.5q-148 -129 -389 -176l-6 13q240 176 358 417h74q120 -242 358 -417z" />
    <glyph glyph-name="caron" unicode="&#x2c7;" horiz-adv-x="872" 
d="M825 1640l6 -12q-238 -174 -358 -418h-74q-118 242 -358 418l6 12q241 -47 389 -176q77 67 180 112.5t209 63.5z" />
    <glyph glyph-name="breve" unicode="&#x2d8;" horiz-adv-x="786" 
d="M393 1260q-121 0 -207.5 94.5t-103.5 261.5h12q38 -77 122 -120.5t177 -43.5t177 43.5t122 120.5h13q-17 -167 -104 -261.5t-208 -94.5z" />
    <glyph glyph-name="dotaccent" unicode="&#x2d9;" horiz-adv-x="518" 
d="M260 1225q-77 0 -126.5 46t-49.5 120q0 68 49 111.5t125 43.5q79 0 129.5 -43t50.5 -112q0 -74 -50.5 -120t-127.5 -46z" />
    <glyph glyph-name="ring" unicode="&#x2da;" horiz-adv-x="585" 
d="M293 1182q-88 0 -149.5 60.5t-61.5 148.5q0 87 61.5 147.5t149.5 60.5t149.5 -60.5t61.5 -147.5q0 -88 -61.5 -148.5t-149.5 -60.5zM293 1268q51 0 86 35.5t35 87.5q0 54 -35 89.5t-86 35.5t-86 -35.5t-35 -89.5q0 -52 35 -87.5t86 -35.5z" />
    <glyph glyph-name="ogonek" unicode="&#x2db;" horiz-adv-x="614" 
d="M291 -512q-84 0 -144.5 53t-60.5 144q0 110 115.5 207t304.5 141l2 -6q-94 -67 -136 -129.5t-42 -128.5q0 -52 29.5 -85.5t68.5 -33.5q40 0 66 33q0 -90 -58.5 -142.5t-144.5 -52.5z" />
    <glyph glyph-name="tilde" unicode="&#x2dc;" horiz-adv-x="927" 
d="M139 1176q-25 22 -41 60t-16 79q0 76 49 125t152 49q70 0 154.5 -28.5t161 -56.5t124.5 -28q42 0 64 18t22 48q0 26 -33 65h12q25 -22 41.5 -59.5t16.5 -73.5q0 -77 -48 -128.5t-153 -51.5q-56 0 -122 17.5t-116 39t-106.5 39t-95.5 17.5q-42 0 -64 -18t-22 -48
q0 -26 33 -65h-13z" />
    <glyph glyph-name="hungarumlaut" unicode="&#x2dd;" horiz-adv-x="927" 
d="M102 1167l-8 11q151 210 236 469l180 -93q-74 -120 -181 -221t-227 -166zM451 1167l-9 11q151 210 236 469l180 -93q-74 -120 -180.5 -221t-226.5 -166z" />
    <glyph glyph-name="gravecomb" unicode="&#x300;" 
d="M-113 1118q-303 116 -446 361l215 123q33 -128 94.5 -253.5t140.5 -220.5z" />
    <glyph glyph-name="acutecomb" unicode="&#x301;" 
d="M-514 1118l-4 10q79 95 140.5 220.5t94.5 253.5l215 -123q-143 -245 -446 -361z" />
    <glyph glyph-name="uni0302" unicode="&#x302;" 
d="M-41 1153l-6 -12q-106 18 -209 63.5t-180 112.5q-148 -129 -389 -176l-6 12q240 176 358 418h74q120 -244 358 -418z" />
    <glyph glyph-name="tildecomb" unicode="&#x303;" 
d="M-748 1186q-25 22 -41 60t-16 79q0 76 49 125t152 49q70 0 154.5 -28.5t161 -56.5t124.5 -28q42 0 64 18t22 48q0 27 -33 66h13q25 -22 41 -59.5t16 -74.5q0 -77 -48 -128.5t-153 -51.5q-56 0 -122 17.5t-116 39t-106.5 39t-95.5 17.5q-42 0 -64 -18t-22 -48
q0 -26 33 -65h-13z" />
    <glyph glyph-name="uni0304" unicode="&#x304;" 
d="M-731 1393h649v-72h-649v72z" />
    <glyph glyph-name="uni0306" unicode="&#x306;" 
d="M-393 1217q-121 0 -208 94.5t-104 261.5h13q38 -77 122 -120.5t177 -43.5t177 43.5t122 120.5h12q-17 -167 -103.5 -261.5t-207.5 -94.5z" />
    <glyph glyph-name="uni0307" unicode="&#x307;" 
d="M-209 1171q-93 0 -151 50t-58 131q0 79 58 128.5t151 49.5t151 -49.5t58 -128.5q0 -81 -58 -131t-151 -50z" />
    <glyph glyph-name="uni0308" unicode="&#x308;" 
d="M-795 1186q-77 0 -126.5 46t-49.5 120q0 68 49 111.5t125 43.5q79 0 130 -43.5t51 -111.5q0 -74 -50.5 -120t-128.5 -46zM-256 1186q-77 0 -126.5 46t-49.5 120q0 69 49.5 112t126.5 43t125.5 -43t48.5 -112q0 -75 -48.5 -120.5t-125.5 -45.5z" />
    <glyph glyph-name="uni030A" unicode="&#x30a;" 
d="M-293 1141q-88 0 -149.5 60.5t-61.5 148.5t61.5 148.5t149.5 60.5t149.5 -60.5t61.5 -148.5t-61.5 -148.5t-149.5 -60.5zM-293 1227q51 0 86 35.5t35 87.5q0 54 -35 89.5t-86 35.5t-86 -35.5t-35 -89.5q0 -52 35 -87.5t86 -35.5z" />
    <glyph glyph-name="uni030B" unicode="&#x30b;" 
d="M-825 1120l-9 10q151 210 236 469l180 -92q-74 -120 -180.5 -221t-226.5 -166zM-477 1120l-8 10q149 207 235 469l180 -92q-74 -120 -180.5 -221t-226.5 -166z" />
    <glyph glyph-name="uni030C" unicode="&#x30c;" 
d="M-47 1585l6 -12q-238 -174 -358 -418h-74q-118 242 -358 418l6 12q241 -47 389 -176q77 67 180 112.5t209 63.5z" />
    <glyph glyph-name="uni0326" unicode="&#x326;" 
d="M-502 -635l-2 6q178 99 178 258q0 52 -29.5 85.5t-68.5 33.5t-65 -33q0 90 58 142.5t144 52.5q84 0 144.5 -53t60.5 -144q0 -115 -118.5 -219.5t-301.5 -128.5z" />
    <glyph glyph-name="uni0327" unicode="&#x327;" 
d="M-367 -573q-70 0 -138.5 30t-106.5 86l14 8q63 -57 145 -57q61 0 105.5 42.5t44.5 109.5q0 68 -64 112.5t-143 44.5l176 191h43l-104 -119q143 3 228 -52.5t85 -156.5q0 -105 -85.5 -172t-199.5 -67z" />
    <glyph glyph-name="uni0328" unicode="&#x328;" 
d="M-324 -512q-84 0 -144 53t-60 144q0 110 115.5 207t303.5 141l3 -6q-95 -68 -137 -130t-42 -128q0 -52 30 -85.5t69 -33.5t65 33q0 -90 -58.5 -142.5t-144.5 -52.5z" />
    <glyph glyph-name="uni0335" unicode="&#x335;" 
d="M-713 745v31h693v-31h-693z" />
    <glyph glyph-name="uni0336" unicode="&#x336;" 
d="M-1556 989v51h1558v-51h-1558z" />
    <glyph glyph-name="uni0337" unicode="&#x337;" 
d="M-739 494v49l637 426v-49z" />
    <glyph glyph-name="uni0338" unicode="&#x338;" 
d="M-1100 -20l1037 1064h63l-1036 -1064h-64z" />
    <glyph glyph-name="Wgrave" unicode="&#x1e80;" horiz-adv-x="2123" 
d="M1378 1505v-10q-323 33 -524 234l176 174q65 -114 156.5 -220.5t191.5 -177.5zM659 1380q-74 0 -107.5 -45.5t-2.5 -122.5l305 -749l-188 -483h-23l-518 1294q-24 59 -66 82.5t-118 23.5v13h718v-13zM1477 1380q-74 0 -108 -46t-3 -122l305 -749l-188 -483h-23l-399 997
l-139 -344l-9 18q107 289 107 391q0 28 -12 70l-66 162q-24 59 -66 82.5t-118 23.5v13h719v-13zM1624 1393h545v-9q-68 0 -120 -57.5t-97 -169.5l-213 -524l-8 18q38 108 57 210.5t21.5 154t2.5 141.5q0 109 -51.5 166t-136.5 57v13z" />
    <glyph glyph-name="wgrave" unicode="&#x1e81;" horiz-adv-x="1843" 
d="M1143 1118q-304 117 -447 361l215 123q33 -127 95 -252.5t141 -221.5zM557 1012q-54 0 -72.5 -33.5t7.5 -87.5l268 -559l-176 -332h-13l-475 940q-33 72 -112 72v12h573v-12zM1231 1012q-54 0 -73 -33.5t7 -87.5l269 -559l-177 -332h-12l-321 637l-66 -123l-12 18
q25 52 30.5 117.5t-14.5 110.5l-92 180q-33 72 -113 72v12h574v-12zM1368 1024h510v-12q-49 0 -76.5 -21t-56.5 -76l-213 -401l-12 18q57 107 57 265q0 92 -53 153.5t-156 61.5v12z" />
    <glyph glyph-name="Wacute" unicode="&#x1e82;" horiz-adv-x="2123" 
d="M1202 1903l176 -174q-201 -201 -524 -234v10q100 71 191.5 177.5t156.5 220.5zM659 1380q-74 0 -107.5 -45.5t-2.5 -122.5l305 -749l-188 -483h-23l-518 1294q-24 59 -66 82.5t-118 23.5v13h718v-13zM1477 1380q-74 0 -108 -46t-3 -122l305 -749l-188 -483h-23l-399 997
l-139 -344l-9 18q107 289 107 391q0 28 -12 70l-66 162q-24 59 -66 82.5t-118 23.5v13h719v-13zM1624 1393h545v-9q-68 0 -120 -57.5t-97 -169.5l-213 -524l-8 18q38 108 57 210.5t21.5 154t2.5 141.5q0 109 -51.5 166t-136.5 57v13z" />
    <glyph glyph-name="wacute" unicode="&#x1e83;" horiz-adv-x="1843" 
d="M1147 1479q-143 -244 -447 -361l-4 10q79 96 141 221.5t95 252.5zM557 1012q-54 0 -72.5 -33.5t7.5 -87.5l268 -559l-176 -332h-13l-475 940q-33 72 -112 72v12h573v-12zM1231 1012q-54 0 -73 -33.5t7 -87.5l269 -559l-177 -332h-12l-321 637l-66 -123l-12 18
q25 52 30.5 117.5t-14.5 110.5l-92 180q-33 72 -113 72v12h574v-12zM1368 1024h510v-12q-49 0 -76.5 -21t-56.5 -76l-213 -401l-12 18q57 107 57 265q0 92 -53 153.5t-156 61.5v12z" />
    <glyph glyph-name="Wdieresis" unicode="&#x1e84;" horiz-adv-x="2123" 
d="M848 1530q-77 0 -126.5 46t-49.5 120q0 68 49 111.5t125 43.5q79 0 129.5 -43t50.5 -112q0 -74 -50.5 -120t-127.5 -46zM1386 1530q-77 0 -126.5 46t-49.5 120q0 69 49.5 112t126.5 43t126 -43t49 -112q0 -74 -49 -120t-126 -46zM659 1380q-74 0 -107.5 -45.5
t-2.5 -122.5l305 -749l-188 -483h-23l-518 1294q-24 59 -66 82.5t-118 23.5v13h718v-13zM1477 1380q-74 0 -108 -46t-3 -122l305 -749l-188 -483h-23l-399 997l-139 -344l-9 18q107 289 107 391q0 28 -12 70l-66 162q-24 59 -66 82.5t-118 23.5v13h719v-13zM1624 1393h545
v-9q-68 0 -120 -57.5t-97 -169.5l-213 -524l-8 18q38 108 57 210.5t21.5 154t2.5 141.5q0 109 -51.5 166t-136.5 57v13z" />
    <glyph glyph-name="wdieresis" unicode="&#x1e85;" horiz-adv-x="1843" 
d="M653 1186q-77 0 -126.5 46t-49.5 120q0 68 49 111.5t125 43.5q79 0 129.5 -43t50.5 -112q0 -74 -50.5 -120t-127.5 -46zM1192 1186q-77 0 -126.5 46t-49.5 120q0 69 49.5 112t126.5 43t125.5 -43t48.5 -112q0 -75 -48.5 -120.5t-125.5 -45.5zM557 1012q-54 0 -72.5 -33.5
t7.5 -87.5l268 -559l-176 -332h-13l-475 940q-33 72 -112 72v12h573v-12zM1231 1012q-54 0 -73 -33.5t7 -87.5l269 -559l-177 -332h-12l-321 637l-66 -123l-12 18q25 52 30.5 117.5t-14.5 110.5l-92 180q-33 72 -113 72v12h574v-12zM1368 1024h510v-12q-49 0 -76.5 -21
t-56.5 -76l-213 -401l-12 18q57 107 57 265q0 92 -53 153.5t-156 61.5v12z" />
    <glyph glyph-name="uni1E9E" unicode="&#x1e9e;" horiz-adv-x="1792" 
d="M1087 1153q0 -64 36.5 -119.5t94.5 -97.5t128 -82t140 -84.5t128 -94.5t94.5 -121t36.5 -155q0 -180 -124.5 -293.5t-334.5 -125.5v12q98 19 152.5 72.5t54.5 136.5q0 72 -36.5 134.5t-94.5 109.5t-128 92t-140.5 92t-128.5 99t-94.5 124t-36.5 156q0 160 137 263
t358 130h-192q-303 0 -442.5 -130t-139.5 -405v-866h-502v12q154 0 154 105v678q0 322 220.5 470t707.5 148h311v-12q-161 -17 -260 -85.5t-99 -162.5zM819 479q49 -194 150.5 -320t228.5 -167v-12q-179 12 -319 102l-60 -102h-14v499h14z" />
    <glyph glyph-name="Ygrave" unicode="&#x1ef2;" horiz-adv-x="1413" 
d="M958 1505v-10q-323 33 -524 234l176 174q65 -114 156.5 -220.5t191.5 -177.5zM889 117q0 -105 153 -105v-12h-655v12q154 0 154 105v375l-404 788q-26 51 -56.5 75.5t-86.5 24.5v13h641v-13q-43 0 -68.5 -18.5t-25.5 -52.5q0 -27 23 -76t146 -288q104 -203 179 -349v-479
zM831 1393h601v-13q-46 0 -77 -25t-61 -73l-305 -530l-8 14q45 88 65 131t37 110t17 138q0 102 -82 168.5t-187 66.5v13z" />
    <glyph glyph-name="ygrave" unicode="&#x1ef3;" horiz-adv-x="1169" 
d="M807 1118q-304 117 -447 361l215 123q33 -127 95 -252.5t141 -221.5zM578 0l-476 940q-33 72 -112 72v12h573v-12q-54 0 -72.5 -33.5t7.5 -87.5l268 -559l-176 -332h-12zM864 514l-12 18q57 107 57 265q0 92 -53 153.5t-156 61.5v12h510v-12q-49 0 -75.5 -21t-57.5 -76z
M193 -512q-84 0 -132.5 51t-48.5 131q0 66 49 118t132 75q-9 -27 -9 -51q-2 -60 30.5 -99t90.5 -39q51 0 96.5 49t110.5 158h14q-13 -24 -36 -68.5t-35.5 -67t-33 -59.5t-34 -56.5t-33.5 -46.5t-36.5 -41t-37 -28t-42.5 -20t-45 -6z" />
    <glyph glyph-name="uni1EF8" unicode="&#x1ef8;" horiz-adv-x="1413" 
d="M371 1524q-25 22 -41.5 60.5t-16.5 78.5q0 76 49 125t152 49q70 0 154.5 -28.5t161 -56.5t124.5 -28q42 0 64 18t22 48q0 27 -32 65h12q25 -22 41 -59t16 -74q0 -78 -48 -129t-152 -51q-56 0 -122 17.5t-116 39t-107 39t-96 17.5q-42 0 -64 -18t-22 -48q0 -26 33 -65h-12
zM889 117q0 -105 153 -105v-12h-655v12q154 0 154 105v375l-404 788q-26 51 -56.5 75.5t-86.5 24.5v13h641v-13q-43 0 -68.5 -18.5t-25.5 -52.5q0 -27 23 -76t146 -288q104 -203 179 -349v-479zM831 1393h601v-13q-46 0 -77 -25t-61 -73l-305 -530l-8 14q45 88 65 131
t37 110t17 138q0 102 -82 168.5t-187 66.5v13z" />
    <glyph glyph-name="uni1EF9" unicode="&#x1ef9;" horiz-adv-x="1169" 
d="M260 1186q-25 22 -41 60t-16 79q0 76 48.5 125t151.5 49q70 0 155 -28.5t161.5 -56.5t124.5 -28q42 0 64 18t22 48q0 27 -33 66h12q25 -22 41.5 -60t16.5 -74q0 -77 -48 -128.5t-153 -51.5q-56 0 -122 17.5t-116 39t-106.5 39t-95.5 17.5q-42 0 -64 -18t-22 -48
q0 -27 32 -65h-12zM578 0l-476 940q-33 72 -112 72v12h573v-12q-54 0 -72.5 -33.5t7.5 -87.5l268 -559l-176 -332h-12zM864 514l-12 18q57 107 57 265q0 92 -53 153.5t-156 61.5v12h510v-12q-49 0 -75.5 -21t-57.5 -76zM193 -512q-84 0 -132.5 51t-48.5 131q0 66 49 118
t132 75q-9 -27 -9 -51q-2 -60 30.5 -99t90.5 -39q51 0 96.5 49t110.5 158h14q-13 -24 -36 -68.5t-35.5 -67t-33 -59.5t-34 -56.5t-33.5 -46.5t-36.5 -41t-37 -28t-42.5 -20t-45 -6z" />
    <glyph glyph-name="endash" unicode="&#x2013;" horiz-adv-x="1632" 
d="M137 567v51h1358v-51h-1358z" />
    <glyph glyph-name="emdash" unicode="&#x2014;" horiz-adv-x="1949" 
d="M137 567v51h1675v-51h-1675z" />
    <glyph glyph-name="quoteleft" unicode="&#x2018;" horiz-adv-x="542" 
d="M256 967q-70 0 -118 47.5t-48 130.5q0 93 91.5 196t240.5 164l6 -18q-49 -39 -83 -93t-34 -106q0 -65 39.5 -99t100.5 -36q-12 -90 -63.5 -138t-131.5 -48z" />
    <glyph glyph-name="quoteright" unicode="&#x2019;" horiz-adv-x="546" 
d="M305 1505q70 0 118 -47.5t48 -130.5q0 -93 -91.5 -196t-240.5 -164l-6 18q49 39 83 93t34 106q0 66 -39 99.5t-100 35.5q12 90 63 138t131 48z" />
    <glyph glyph-name="quotesinglbase" unicode="&#x201a;" horiz-adv-x="575" 
d="M295 319q70 0 118 -47.5t48 -130.5q0 -93 -91.5 -196t-240.5 -164l-6 18q49 39 83 93t34 106q0 65 -39.5 99t-100.5 36q12 90 63.5 138t131.5 48z" />
    <glyph glyph-name="quotedblleft" unicode="&#x201c;" horiz-adv-x="995" 
d="M256 967q-70 0 -118 47.5t-48 130.5q0 93 91.5 196t240.5 164l6 -18q-49 -39 -83 -93t-34 -106q0 -65 39.5 -99t100.5 -36q-12 -90 -63.5 -138t-131.5 -48zM709 967q-70 0 -118 47.5t-48 130.5q0 93 91 196t240 164l7 -18q-49 -39 -83 -93t-34 -106q0 -66 39 -99.5
t100 -35.5q-12 -90 -63 -138t-131 -48z" />
    <glyph glyph-name="quotedblright" unicode="&#x201d;" horiz-adv-x="999" 
d="M305 1505q70 0 118 -47.5t48 -130.5q0 -93 -91.5 -196t-240.5 -164l-6 18q49 39 83 93t34 106q0 66 -39 99.5t-100 35.5q12 90 63 138t131 48zM758 1505q70 0 118 -47.5t48 -130.5q0 -93 -91.5 -196t-240.5 -164l-6 18q48 39 82 93t34 106q0 66 -39 99.5t-100 35.5
q12 90 63.5 138t131.5 48z" />
    <glyph glyph-name="quotedblbase" unicode="&#x201e;" horiz-adv-x="1030" 
d="M299 190q70 0 118 -47.5t48 -130.5q0 -93 -91.5 -196t-240.5 -164l-6 18q49 39 83 93t34 106q0 65 -39.5 99t-100.5 36q12 90 63.5 138t131.5 48zM752 190q70 0 118 -47.5t48 -130.5q0 -93 -91.5 -196t-240.5 -164l-6 18q48 39 82 93t34 106q0 66 -39 99.5t-100 35.5
q12 90 63.5 138t131.5 48z" />
    <glyph glyph-name="dagger" unicode="&#x2020;" horiz-adv-x="1228" 
d="M604 1145q-3 37 -19 73t-36.5 63.5t-41 53.5t-34.5 53.5t-14 53.5q0 72 43.5 118t113.5 46t114 -46t44 -118q0 -31 -22.5 -67t-49.5 -65.5t-51 -74.5t-26 -90h-21zM260 920q-72 0 -118 43.5t-46 113.5t46 114t118 44q26 0 53.5 -14t53.5 -34.5t53.5 -41t63.5 -36.5
t73 -19v-21q-45 -2 -90 -26t-74.5 -51t-65.5 -49.5t-67 -22.5zM969 920q-31 0 -67 22.5t-65.5 49.5t-74.5 51t-90 26v21q37 3 73 19t63.5 36.5t53.5 41t53.5 34.5t53.5 14q72 0 118 -44t46 -114t-46 -113.5t-118 -43.5zM604 -266q-3 193 -19 341t-36.5 227.5t-41 133.5
t-34.5 90.5t-14 65.5q0 38 14 71.5t34.5 63.5t41 65t36.5 92t19 128h21q2 -71 18 -127t37.5 -90t42.5 -63.5t36 -64t15 -75.5q0 -29 -15 -65.5t-36 -90.5t-42.5 -133.5t-37.5 -227.5t-18 -341h-21z" />
    <glyph glyph-name="daggerdbl" unicode="&#x2021;" horiz-adv-x="1228" 
d="M604 1145q-3 37 -19 73t-36.5 63.5t-41 53.5t-34.5 53.5t-14 53.5q0 72 43.5 118t113.5 46t114 -46t44 -118q0 -31 -22.5 -67t-49.5 -65.5t-51 -74.5t-26 -90h-21zM260 920q-72 0 -118 43.5t-46 113.5t46 114t118 44q26 0 53.5 -14t53.5 -34.5t53.5 -41t63.5 -36.5
t73 -19v-21q-45 -2 -90 -26t-74.5 -51t-65.5 -49.5t-67 -22.5zM969 920q-31 0 -67 22.5t-65.5 49.5t-74.5 51t-90 26v21q37 3 73 19t63.5 36.5t53.5 41t53.5 34.5t53.5 14q72 0 118 -44t46 -114t-46 -113.5t-118 -43.5zM604 328q-3 60 -19 104.5t-36.5 69.5t-41 47.5
t-34.5 52t-14 68.5t14 68.5t34.5 52t41 47.5t36.5 69.5t19 104.5h21q2 -60 18 -103t37.5 -67.5t42.5 -46t36 -52.5t15 -73t-15 -73t-36 -52.5t-42.5 -46t-37.5 -67.5t-18 -103h-21zM260 104q-72 0 -118 44t-46 114t46 114t118 44q31 0 67 -22.5t65.5 -50t74.5 -51.5t90 -26
v-20q-45 -3 -90 -27t-74.5 -50t-65.5 -47.5t-67 -21.5zM969 104q-31 0 -67 21.5t-65.5 47.5t-74.5 50t-90 27v20q45 2 90 26t74.5 51.5t65.5 50t67 22.5q72 0 118 -44t46 -114t-46 -114t-118 -44zM616 -266q-70 0 -113.5 46t-43.5 118q0 26 14 53.5t34.5 53.5t41 53.5
t36.5 63.5t19 73h21q2 -45 26 -90t51 -74.5t49.5 -65.5t22.5 -67q0 -72 -44 -118t-114 -46z" />
    <glyph glyph-name="bullet" unicode="&#x2022;" horiz-adv-x="1017" 
d="M508 299q-158 0 -259.5 91t-101.5 239q0 145 101 233t260 88q160 0 261 -88t101 -233q0 -148 -101 -239t-261 -91z" />
    <glyph glyph-name="ellipsis" unicode="&#x2026;" horiz-adv-x="1800" 
d="M326 -20q-96 0 -158 55t-62 145q0 88 62 142.5t158 54.5q98 0 159.5 -54t61.5 -143q0 -90 -61.5 -145t-159.5 -55zM899 -20q-96 0 -157.5 55t-61.5 145q0 88 61.5 142.5t157.5 54.5q98 0 159.5 -54t61.5 -143q0 -90 -61.5 -145t-159.5 -55zM1473 -20q-96 0 -158 55
t-62 145q0 88 62 142.5t158 54.5q98 0 159.5 -54t61.5 -143q0 -90 -61.5 -145t-159.5 -55z" />
    <glyph glyph-name="perthousand" unicode="&#x2030;" horiz-adv-x="2285" 
d="M233 -61l1000 1515h57l-999 -1515h-58zM354 700q-125 0 -203.5 92.5t-78.5 264.5t78.5 264t203.5 92t203 -92t78 -264t-78 -264.5t-203 -92.5zM354 715q38 0 61 24t38.5 101.5t15.5 216.5t-15.5 216.5t-38.5 101.5t-61 24q-39 0 -62 -24t-38.5 -101.5t-15.5 -216.5
t15.5 -216.5t38.5 -101.5t62 -24zM1186 -20q-125 0 -204 92t-79 264t79 264t204 92t202.5 -92t77.5 -264t-77.5 -264t-202.5 -92zM1939 -20q-125 0 -203.5 92t-78.5 264t78.5 264t203.5 92t203 -92t78 -264t-78 -264t-203 -92zM1186 -6q28 0 47 13.5t35 49t24 105t8 174.5
t-8 174.5t-24 105t-35 49t-47 13.5q-39 0 -62.5 -24t-39 -101.5t-15.5 -216.5q0 -105 8 -174.5t24.5 -105t36 -49t48.5 -13.5zM1939 -6q38 0 61 24t38.5 101.5t15.5 216.5t-15.5 216.5t-38.5 101.5t-61 24q-39 0 -62 -24t-38.5 -101.5t-15.5 -216.5t15.5 -216.5t38.5 -101.5
t62 -24z" />
    <glyph glyph-name="guilsinglleft" unicode="&#x2039;" horiz-adv-x="708" 
d="M594 915q-29 -107 -91 -216t-141 -195q78 -86 140 -195.5t92 -216.5l-21 -10q-125 132 -244 227.5t-257 173.5v41q261 147 501 402z" />
    <glyph glyph-name="guilsinglright" unicode="&#x203a;" horiz-adv-x="708" 
d="M135 926q125 -132 244.5 -228t257.5 -174v-41q-138 -78 -258 -173.5t-244 -227.5l-20 10q30 108 92 217t139 195q-79 86 -140.5 194.5t-90.5 216.5z" />
    <glyph glyph-name="fraction" unicode="&#x2044;" horiz-adv-x="1015" 
d="M-20 -61l999 1515h57l-999 -1515h-57z" />
    <glyph glyph-name="Euro" unicode="&#x20ac;" horiz-adv-x="1374" 
d="M1012 20q77 0 137 13t125 49l8 -16q-140 -86 -350 -86q-80 0 -163 20t-166 63.5t-152 105.5t-122.5 154t-76.5 201h-180v51h172q-8 49 -8 119t8 119h-172v51h180q23 109 76.5 201t122.5 154.5t152 106t166 63.5t163 20q210 0 350 -86l-8 -16q-65 36 -124.5 48.5
t-137.5 12.5q-134 0 -235.5 -132.5t-129.5 -371.5h471l-22 -51h-455q-4 -74 -4 -119t4 -119h477l-22 -51h-449q28 -239 129.5 -371.5t235.5 -132.5z" />
    <glyph glyph-name="trademark" unicode="&#x2122;" horiz-adv-x="1875" 
d="M680 1393v-162h-37q0 83 -29.5 103t-140.5 20v-461q0 -42 16.5 -62t63.5 -20v-39h-328v39q48 0 65 20t17 62v461q-111 0 -139.5 -20t-28.5 -103h-37v162h578zM1737 1354q-52 0 -70 -17t-18 -45v-399q0 -43 17.5 -62.5t70.5 -19.5v-39h-336v39q49 0 65.5 20t16.5 62v389
l-277 -520h-18l-266 508v-377q0 -42 19 -62t75 -20v-39h-250v39q56 0 75 20t19 62v446q-34 15 -94 15v39h281l213 -408l223 408h254v-39z" />
    <glyph glyph-name="minus" unicode="&#x2212;" horiz-adv-x="1167" 
d="M143 567v51h881v-51h-881z" />
    <glyph glyph-name="approxequal" unicode="&#x2248;" horiz-adv-x="1173" 
d="M979 909h51q0 -112 -62 -176.5t-169 -64.5q-49 0 -110.5 34t-109.5 74.5t-104.5 74.5t-97.5 34q-87 0 -132.5 -49.5t-45.5 -143.5h-52q0 115 60.5 179.5t169.5 64.5q49 0 110.5 -34t109.5 -74.5t104.5 -74.5t97.5 -34q85 0 132.5 50t47.5 140zM979 502h51
q0 -112 -62 -177t-169 -65q-49 0 -110.5 34t-109.5 74.5t-104.5 74.5t-97.5 34q-88 0 -133 -49t-45 -143h-52q0 115 60.5 179t169.5 64q49 0 110.5 -34t109.5 -74.5t104.5 -74.5t97.5 -34q85 0 132.5 50t47.5 141z" />
    <glyph glyph-name="notequal" unicode="&#x2260;" horiz-adv-x="1167" 
d="M1024 709h-332l-157 -269h489v-51h-520l-148 -248l-39 29l129 219h-303v51h334l158 269h-492v51h523l143 241l41 -28l-127 -213h301v-51z" />
    <glyph glyph-name="uniF8FF" unicode="&#xf8ff;" horiz-adv-x="2971" 
d="M1415 1194q0 54 36 90.5t89 36.5q54 0 90.5 -36.5t36.5 -90.5q0 -53 -36.5 -89t-90.5 -36q-52 0 -88.5 36.5t-36.5 88.5zM449 553h-244q0 274 18 643h205q1 -10 4 -65t5.5 -108t5.5 -128t4.5 -164t1.5 -178zM1421 553q0 187 6 301h-124l6 -133q8 -8 30 -8q27 0 37 10
v-152q-26 -30 -139 -30q-168 0 -168 135q0 25 4 100.5t4 77.5h-45v162l244 61l2 -35h364q21 -138 21 -489h-242zM672 543q-90 0 -139.5 58t-49.5 175q0 133 68.5 205t206.5 72q128 0 191 -62t63 -178v-260h-170l-17 125q-13 -67 -48 -101t-105 -34zM2232 553h-233
q0 54 2 115t2 75q0 33 -6 46.5t-25 13.5q-23 0 -30 -15t-7 -45q0 -14 3.5 -75t3.5 -115h-234q0 351 21 489h163q13 -97 13 -155q2 20 9 42t23 53t50 51t81 20q87 0 121 -51t37 -166zM2767 801q0 -125 -62 -191.5t-190 -66.5q-127 0 -188.5 66.5t-61.5 187.5q0 53 12 96
t39 80.5t79 58.5t124 21q248 0 248 -252zM799 768q0 53 -49 53q-24 0 -34.5 -12t-10.5 -41q0 -61 45 -61q49 0 49 61zM2562 768q0 53 -47 53q-22 0 -32.5 -12t-10.5 -41q0 -61 43 -61q22 0 34.5 16t12.5 45zM877 487h213q20 -107 20 -282q0 -166 -68.5 -236.5t-242.5 -70.5
q-127 0 -181 34v170q48 -32 144 -32q43 0 69.5 12.5t33.5 24t7 20.5q-35 -23 -100 -23q-184 0 -184 170v27h-113l6 -133q12 -8 31 -8q27 0 37 10v-150q-37 -30 -139 -30q-91 0 -128.5 34.5t-37.5 110.5q0 79 6 166h-37v164l240 59l-2 -37h362v-243q0 -33 6 -44.5t25 -11.5
t26 12.5t7 43.5v243zM1501 498q76 0 120 -60t44 -172q0 -276 -281 -276q2 -31 2 -80h-243q0 292 20 577h160q14 -87 14 -155q3 16 7 29.5t16.5 41t28.5 46.5t46 34t66 15zM2191 260q0 -45 -6 -72h-254q23 -36 103 -36q68 0 112 24v-153q-47 -33 -159 -33q-289 0 -289 250
q0 121 67 189.5t189 68.5q113 0 175 -61.5t62 -176.5zM2003 223q6 56 -35 56q-47 0 -47 -56h82zM1372 147q11 0 26.5 5t32.5 24t17 47q0 47 -41 47q-45 0 -45 -63q0 -30 10 -60zM2200 27q0 -22 13.5 -34.5t35.5 -12.5t35.5 12.5t13.5 34.5t-13.5 34.5t-35.5 12.5
t-35.5 -12.5t-13.5 -34.5zM2212 27q0 36 37 36t37 -36q0 -37 -37 -37t-37 37zM2269 4l-12 19q14 0 14 14t-20 14h-23v-47h10v19h11l8 -19h12zM2253 31h-15v12h15q8 0 8 -6t-8 -6z" />
    <glyph glyph-name="Q.ss01" horiz-adv-x="1675" 
d="M786 -20q-90 0 -185.5 30t-185.5 91.5t-160.5 146.5t-113.5 205t-43 256q0 112 30 212t81.5 175.5t119.5 136.5t145 99.5t156.5 59t155.5 21.5v-12q-62 -6 -110 -40.5t-89.5 -109.5t-64 -212t-22.5 -330q0 -153 15.5 -274t41.5 -200t63 -133t77.5 -79t88.5 -31v-12z
M889 -20v12q60 7 109.5 47t90.5 120.5t64 220.5t23 329q0 193 -22.5 330t-64.5 212t-90 109.5t-110 40.5v12q76 -1 155.5 -21.5t156.5 -59t145 -99.5t119.5 -136.5t81.5 -175.5t30 -212q0 -136 -43 -256t-113.5 -205t-160.5 -146.5t-185.5 -91.5t-185.5 -30zM1321 -571
q-63 0 -119.5 20t-98.5 52t-80.5 71t-74.5 78t-71 71t-77.5 52t-88.5 20q-49 0 -73 -19.5t-24 -47.5q0 -24 16.5 -41t41.5 -23q0 -21 -20.5 -34t-49.5 -13q-47 0 -77.5 34t-30.5 87q0 80 68.5 132t191.5 52q97 0 202.5 -36.5t180 -80t154.5 -80t132 -36.5q169 0 213 114
l13 -4q2 -16 2 -45q0 -148 -95.5 -235.5t-234.5 -87.5z" />
    <glyph glyph-name="i.loclTRK" horiz-adv-x="733" 
d="M367 1171q-93 0 -151 50t-58 131q0 79 58 128.5t151 49.5q92 0 150 -49.5t58 -128.5q0 -81 -57.5 -131t-150.5 -50zM53 954v13q293 0 490 80v-930q0 -105 153 -105v-12h-645v12q84 0 119 30t35 75v729q0 57 -33.5 82.5t-118.5 25.5z" />
    <glyph glyph-name="a.ss01" horiz-adv-x="1347" 
d="M467 1044q99 0 178.5 -50t104.5 -113v-17q-58 76 -148 76q-25 0 -44.5 -7.5t-42.5 -33.5t-38 -69.5t-25 -122t-10 -185.5q0 -436 160 -436q82 0 148 72v-13q-25 -67 -104 -116t-179 -49q-55 0 -105 15t-100 53t-86.5 97.5t-59 156t-22.5 220.5q0 118 22.5 210.5t58.5 150
t86 95t100.5 52t105.5 14.5zM1149 1044v-907q0 -84 55 -84q49 0 99 92h12q-24 -81 -96.5 -123t-169.5 -42q-126 0 -182 51.5t-56 179.5v754q149 11 338 79z" />
    <glyph glyph-name="aacute.ss01" horiz-adv-x="1347" 
d="M453 1118l-4 10q79 95 140.5 220.5t94.5 253.5l215 -123q-143 -245 -446 -361zM467 1044q99 0 178.5 -50t104.5 -113v-17q-58 76 -148 76q-25 0 -44.5 -7.5t-42.5 -33.5t-38 -69.5t-25 -122t-10 -185.5q0 -436 160 -436q82 0 148 72v-13q-25 -67 -104 -116t-179 -49
q-55 0 -105 15t-100 53t-86.5 97.5t-59 156t-22.5 220.5q0 118 22.5 210.5t58.5 150t86 95t100.5 52t105.5 14.5zM1149 1044v-907q0 -84 55 -84q49 0 99 92h12q-24 -81 -96.5 -123t-169.5 -42q-126 0 -182 51.5t-56 179.5v754q149 11 338 79z" />
    <glyph glyph-name="abreve.ss01" horiz-adv-x="1347" 
d="M674 1217q-121 0 -208 94.5t-104 261.5h13q38 -77 122 -120.5t177 -43.5t177 43.5t122 120.5h12q-17 -167 -103.5 -261.5t-207.5 -94.5zM467 1044q99 0 178.5 -50t104.5 -113v-17q-58 76 -148 76q-25 0 -44.5 -7.5t-42.5 -33.5t-38 -69.5t-25 -122t-10 -185.5
q0 -436 160 -436q82 0 148 72v-13q-25 -67 -104 -116t-179 -49q-55 0 -105 15t-100 53t-86.5 97.5t-59 156t-22.5 220.5q0 118 22.5 210.5t58.5 150t86 95t100.5 52t105.5 14.5zM1149 1044v-907q0 -84 55 -84q49 0 99 92h12q-24 -81 -96.5 -123t-169.5 -42q-126 0 -182 51.5
t-56 179.5v754q149 11 338 79z" />
    <glyph glyph-name="acircumflex.ss01" horiz-adv-x="1347" 
d="M670 1317q-148 -129 -389 -176l-7 12q241 177 359 418h74q120 -244 358 -418l-6 -12q-106 18 -209 63.5t-180 112.5zM467 1044q99 0 178.5 -50t104.5 -113v-17q-58 76 -148 76q-25 0 -44.5 -7.5t-42.5 -33.5t-38 -69.5t-25 -122t-10 -185.5q0 -436 160 -436q82 0 148 72
v-13q-25 -67 -104 -116t-179 -49q-55 0 -105 15t-100 53t-86.5 97.5t-59 156t-22.5 220.5q0 118 22.5 210.5t58.5 150t86 95t100.5 52t105.5 14.5zM1303 145h12q-24 -81 -96.5 -123t-169.5 -42q-126 0 -182 51.5t-56 179.5v754q149 11 338 79v-907q0 -84 55 -84q49 0 99 92z
" />
    <glyph glyph-name="adieresis.ss01" horiz-adv-x="1347" 
d="M406 1186q-77 0 -127 46t-50 120q0 68 49 111.5t125 43.5q79 0 130 -43.5t51 -111.5q0 -74 -50.5 -120t-127.5 -46zM944 1186q-77 0 -126.5 46t-49.5 120q0 69 49.5 112t126.5 43t125.5 -43t48.5 -112q0 -75 -48.5 -120.5t-125.5 -45.5zM467 1044q99 0 178.5 -50
t104.5 -113v-17q-58 76 -148 76q-25 0 -44.5 -7.5t-42.5 -33.5t-38 -69.5t-25 -122t-10 -185.5q0 -436 160 -436q82 0 148 72v-13q-25 -67 -104 -116t-179 -49q-55 0 -105 15t-100 53t-86.5 97.5t-59 156t-22.5 220.5q0 118 22.5 210.5t58.5 150t86 95t100.5 52t105.5 14.5z
M1149 1044v-907q0 -84 55 -84q49 0 99 92h12q-24 -81 -96.5 -123t-169.5 -42q-126 0 -182 51.5t-56 179.5v754q149 11 338 79z" />
    <glyph glyph-name="agrave.ss01" horiz-adv-x="1347" 
d="M895 1118q-303 116 -446 361l215 123q33 -128 94.5 -253.5t140.5 -220.5zM467 1044q99 0 178.5 -50t104.5 -113v-17q-58 76 -148 76q-25 0 -44.5 -7.5t-42.5 -33.5t-38 -69.5t-25 -122t-10 -185.5q0 -436 160 -436q82 0 148 72v-13q-25 -67 -104 -116t-179 -49
q-55 0 -105 15t-100 53t-86.5 97.5t-59 156t-22.5 220.5q0 118 22.5 210.5t58.5 150t86 95t100.5 52t105.5 14.5zM1149 1044v-907q0 -84 55 -84q49 0 99 92h12q-24 -81 -96.5 -123t-169.5 -42q-126 0 -182 51.5t-56 179.5v754q149 11 338 79z" />
    <glyph glyph-name="amacron.ss01" horiz-adv-x="1347" 
d="M348 1393h649v-72h-649v72zM467 1044q99 0 178.5 -50t104.5 -113v-17q-58 76 -148 76q-25 0 -44.5 -7.5t-42.5 -33.5t-38 -69.5t-25 -122t-10 -185.5q0 -436 160 -436q82 0 148 72v-13q-25 -67 -104 -116t-179 -49q-55 0 -105 15t-100 53t-86.5 97.5t-59 156t-22.5 220.5
q0 118 22.5 210.5t58.5 150t86 95t100.5 52t105.5 14.5zM1149 1044v-907q0 -84 55 -84q49 0 99 92h12q-24 -81 -96.5 -123t-169.5 -42q-126 0 -182 51.5t-56 179.5v754q149 11 338 79z" />
    <glyph glyph-name="aogonek.ss01" horiz-adv-x="1347" 
d="M467 1044q99 0 178.5 -50t104.5 -113v-17q-58 76 -148 76q-25 0 -44.5 -7.5t-42.5 -33.5t-38 -69.5t-25 -122t-10 -185.5q0 -436 160 -436q82 0 148 72v-13q-25 -67 -104 -116t-179 -49q-55 0 -105 15t-100 53t-86.5 97.5t-59 156t-22.5 220.5q0 118 22.5 210.5t58.5 150
t86 95t100.5 52t105.5 14.5zM1217 20q-90 -66 -130 -126.5t-40 -124.5q0 -52 29.5 -85.5t68.5 -33.5t65 33q0 -90 -58 -142.5t-144 -52.5q-84 0 -144.5 53t-60.5 144q0 85 69 163t191 132h-14q-126 0 -182 51.5t-56 179.5v754q149 11 338 79v-907q0 -84 55 -84q49 0 99 92
h12q-23 -79 -98 -125z" />
    <glyph glyph-name="aring.ss01" horiz-adv-x="1347" 
d="M674 1141q-88 0 -149.5 60.5t-61.5 148.5t61.5 148.5t149.5 60.5t149.5 -60.5t61.5 -148.5t-61.5 -148.5t-149.5 -60.5zM674 1227q51 0 86 35.5t35 87.5q0 54 -35 89.5t-86 35.5t-86 -35.5t-35 -89.5q0 -52 35 -87.5t86 -35.5zM467 1044q99 0 178.5 -50t104.5 -113v-17
q-58 76 -148 76q-25 0 -44.5 -7.5t-42.5 -33.5t-38 -69.5t-25 -122t-10 -185.5q0 -436 160 -436q82 0 148 72v-13q-25 -67 -104 -116t-179 -49q-55 0 -105 15t-100 53t-86.5 97.5t-59 156t-22.5 220.5q0 118 22.5 210.5t58.5 150t86 95t100.5 52t105.5 14.5zM1149 1044v-907
q0 -84 55 -84q49 0 99 92h12q-24 -81 -96.5 -123t-169.5 -42q-126 0 -182 51.5t-56 179.5v754q149 11 338 79z" />
    <glyph glyph-name="atilde.ss01" horiz-adv-x="1347" 
d="M348 1186q-25 22 -41 60t-16 79q0 76 49 125t152 49q70 0 154.5 -28.5t161 -56.5t124.5 -28q42 0 64 18t22 48q0 27 -33 66h12q25 -22 41.5 -60t16.5 -74q0 -77 -48 -128.5t-153 -51.5q-56 0 -122 17.5t-116 39t-106.5 39t-95.5 17.5q-42 0 -64 -18t-22 -48q0 -27 32 -65
h-12zM467 1044q99 0 178.5 -50t104.5 -113v-17q-58 76 -148 76q-25 0 -44.5 -7.5t-42.5 -33.5t-38 -69.5t-25 -122t-10 -185.5q0 -436 160 -436q82 0 148 72v-13q-25 -67 -104 -116t-179 -49q-55 0 -105 15t-100 53t-86.5 97.5t-59 156t-22.5 220.5q0 118 22.5 210.5
t58.5 150t86 95t100.5 52t105.5 14.5zM1149 1044v-907q0 -84 55 -84q49 0 99 92h12q-24 -81 -96.5 -123t-169.5 -42q-126 0 -182 51.5t-56 179.5v754q149 11 338 79z" />
    <glyph glyph-name="e.ss01" horiz-adv-x="1150" 
d="M614 -20q-100 0 -193.5 36t-168.5 102.5t-120.5 170.5t-45.5 229t44.5 227t117.5 165.5t161.5 98t180.5 35.5v-12q-62 -7 -94 -52t-46 -149t-14 -305q0 -216 87 -337t227 -121q89 0 158.5 25.5t142.5 82.5v-12q-73 -93 -197 -138.5t-240 -45.5zM559 516v12
q107 10 177.5 96t70.5 205q0 80 -32.5 137.5t-102.5 65.5v12q167 0 283 -72t116 -198q0 -65 -46 -116.5t-121.5 -81.5t-163.5 -45t-181 -15z" />
    <glyph glyph-name="eacute.ss01" horiz-adv-x="1150" 
d="M412 1118l-4 10q79 95 140.5 220.5t94.5 253.5l215 -123q-143 -245 -446 -361zM614 -20q-100 0 -193.5 36t-168.5 102.5t-120.5 170.5t-45.5 229t44.5 227t117.5 165.5t161.5 98t180.5 35.5v-12q-62 -7 -94 -52t-46 -149t-14 -305q0 -216 87 -337t227 -121
q89 0 158.5 25.5t142.5 82.5v-12q-73 -93 -197 -138.5t-240 -45.5zM559 516v12q107 10 177.5 96t70.5 205q0 80 -32.5 137.5t-102.5 65.5v12q167 0 283 -72t116 -198q0 -65 -46 -116.5t-121.5 -81.5t-163.5 -45t-181 -15z" />
    <glyph glyph-name="ecaron.ss01" horiz-adv-x="1150" 
d="M596 1155q-118 242 -358 418l6 12q241 -47 389 -176q77 67 180 112.5t209 63.5l6 -12q-238 -174 -358 -418h-74zM436 526q0 -216 87 -337t227 -121q89 0 158.5 25.5t142.5 82.5v-12q-73 -93 -197 -138.5t-240 -45.5q-100 0 -193.5 36t-168.5 102.5t-120.5 170.5
t-45.5 229t44.5 227t117.5 165.5t161.5 98t180.5 35.5v-12q-62 -7 -94 -52t-46 -149t-14 -305zM559 528q107 10 177.5 96t70.5 205q0 80 -32.5 137.5t-102.5 65.5v12q167 0 283 -72t116 -198q0 -65 -46 -116.5t-121.5 -81.5t-163.5 -45t-181 -15v12z" />
    <glyph glyph-name="ecircumflex.ss01" horiz-adv-x="1150" 
d="M629 1317q-148 -129 -389 -176l-7 12q241 177 359 418h74q120 -244 358 -418l-6 -12q-106 18 -209 63.5t-180 112.5zM436 526q0 -216 87 -337t227 -121q89 0 158.5 25.5t142.5 82.5v-12q-73 -93 -197 -138.5t-240 -45.5q-100 0 -193.5 36t-168.5 102.5t-120.5 170.5
t-45.5 229t44.5 227t117.5 165.5t161.5 98t180.5 35.5v-12q-62 -7 -94 -52t-46 -149t-14 -305zM559 528q107 10 177.5 96t70.5 205q0 80 -32.5 137.5t-102.5 65.5v12q167 0 283 -72t116 -198q0 -65 -46 -116.5t-121.5 -81.5t-163.5 -45t-181 -15v12z" />
    <glyph glyph-name="edieresis.ss01" horiz-adv-x="1150" 
d="M365 1186q-77 0 -127 46t-50 120q0 68 49 111.5t125 43.5q79 0 130 -43.5t51 -111.5q0 -74 -50.5 -120t-127.5 -46zM903 1186q-77 0 -126.5 46t-49.5 120q0 69 49.5 112t126.5 43t125.5 -43t48.5 -112q0 -75 -48.5 -120.5t-125.5 -45.5zM614 -20q-100 0 -193.5 36
t-168.5 102.5t-120.5 170.5t-45.5 229t44.5 227t117.5 165.5t161.5 98t180.5 35.5v-12q-62 -7 -94 -52t-46 -149t-14 -305q0 -216 87 -337t227 -121q89 0 158.5 25.5t142.5 82.5v-12q-73 -93 -197 -138.5t-240 -45.5zM559 516v12q107 10 177.5 96t70.5 205q0 80 -32.5 137.5
t-102.5 65.5v12q167 0 283 -72t116 -198q0 -65 -46 -116.5t-121.5 -81.5t-163.5 -45t-181 -15z" />
    <glyph glyph-name="edotaccent.ss01" horiz-adv-x="1150" 
d="M633 1171q-93 0 -151 50t-58 131q0 79 58 128.5t151 49.5t151 -49.5t58 -128.5q0 -81 -58 -131t-151 -50zM614 -20q-100 0 -193.5 36t-168.5 102.5t-120.5 170.5t-45.5 229t44.5 227t117.5 165.5t161.5 98t180.5 35.5v-12q-62 -7 -94 -52t-46 -149t-14 -305
q0 -216 87 -337t227 -121q89 0 158.5 25.5t142.5 82.5v-12q-73 -93 -197 -138.5t-240 -45.5zM559 516v12q107 10 177.5 96t70.5 205q0 80 -32.5 137.5t-102.5 65.5v12q167 0 283 -72t116 -198q0 -65 -46 -116.5t-121.5 -81.5t-163.5 -45t-181 -15z" />
    <glyph glyph-name="egrave.ss01" horiz-adv-x="1150" 
d="M854 1118q-303 116 -446 361l215 123q33 -128 94.5 -253.5t140.5 -220.5zM614 -20q-100 0 -193.5 36t-168.5 102.5t-120.5 170.5t-45.5 229t44.5 227t117.5 165.5t161.5 98t180.5 35.5v-12q-62 -7 -94 -52t-46 -149t-14 -305q0 -216 87 -337t227 -121q89 0 158.5 25.5
t142.5 82.5v-12q-73 -93 -197 -138.5t-240 -45.5zM559 516v12q107 10 177.5 96t70.5 205q0 80 -32.5 137.5t-102.5 65.5v12q167 0 283 -72t116 -198q0 -65 -46 -116.5t-121.5 -81.5t-163.5 -45t-181 -15z" />
    <glyph glyph-name="emacron.ss01" horiz-adv-x="1150" 
d="M307 1393h649v-72h-649v72zM614 -20q-100 0 -193.5 36t-168.5 102.5t-120.5 170.5t-45.5 229t44.5 227t117.5 165.5t161.5 98t180.5 35.5v-12q-62 -7 -94 -52t-46 -149t-14 -305q0 -216 87 -337t227 -121q89 0 158.5 25.5t142.5 82.5v-12q-73 -93 -197 -138.5t-240 -45.5
zM559 516v12q107 10 177.5 96t70.5 205q0 80 -32.5 137.5t-102.5 65.5v12q167 0 283 -72t116 -198q0 -65 -46 -116.5t-121.5 -81.5t-163.5 -45t-181 -15z" />
    <glyph glyph-name="eogonek.ss01" horiz-adv-x="1150" 
d="M436 526q0 -216 87 -337t227 -121q89 0 158.5 25.5t142.5 82.5v-12q-61 -74 -168 -127q-93 -66 -134.5 -128t-41.5 -128q0 -52 29.5 -85.5t68.5 -33.5t65 33q0 -90 -58 -142.5t-144 -52.5q-84 0 -144.5 53t-60.5 144q0 83 66.5 160t183.5 131q-47 -8 -99 -8
q-100 0 -193.5 36t-168.5 102.5t-120.5 170.5t-45.5 229t44.5 227t117.5 165.5t161.5 98t180.5 35.5v-12q-62 -7 -94 -52t-46 -149t-14 -305zM807 829q0 80 -32.5 137.5t-102.5 65.5v12q167 0 283 -72t116 -198q0 -65 -46 -116.5t-121.5 -81.5t-163.5 -45t-181 -15v12
q107 10 177.5 96t70.5 205z" />
    <glyph glyph-name="f.ss01" horiz-adv-x="747" 
d="M401 1296q0 -45 10 -88t35 -87t63 -76.5t98.5 -53t135.5 -20.5l-22 -31h-201v-1003q0 -189 -96 -307.5t-244 -141.5v12q58 22 89.5 67.5t31.5 129.5q0 87 -33 156.5t-86 107.5v979h-133l23 31h110v86q0 189 96 307t244 141v-12q-58 -22 -89.5 -67.5t-31.5 -129.5z
M604 1505q159 -6 236.5 -58t77.5 -142q0 -83 -53 -132t-126 -49q-77 0 -129.5 38t-77.5 100q65 0 105.5 34t40.5 84q0 93 -74 113v12zM170 -268q-65 0 -105 -34t-40 -85q0 -93 73 -113v-12q-158 6 -235.5 58.5t-77.5 142.5q0 81 52.5 130.5t125.5 49.5q77 0 129.5 -38
t77.5 -99z" />
    <glyph glyph-name="g.ss01" horiz-adv-x="1316" 
d="M752 881v-17q-58 76 -148 76q-25 0 -44.5 -7.5t-42.5 -33.5t-38 -69.5t-25 -122t-10 -185.5q0 -436 160 -436q82 0 148 72v-13q-25 -67 -104 -116t-179 -49q-55 0 -105 15t-100 53t-86.5 97.5t-59 156t-22.5 220.5q0 118 22.5 210.5t58.5 150t86 95t100.5 52t105.5 14.5
q99 0 178.5 -50t104.5 -113zM813 965q48 0 144.5 20t193.5 59v-1064q0 -226 -145.5 -359t-391.5 -133v12q96 0 147.5 53.5t51.5 143.5v1268zM532 -512q-68 3 -131 16.5t-120.5 39t-92 69.5t-34.5 100q0 70 52.5 113t129.5 43q73 0 134 -39t85 -98q-68 0 -107.5 -37
t-39.5 -86q0 -46 33 -70.5t91 -38.5v-12z" />
    <glyph glyph-name="gbreve.ss01" horiz-adv-x="1316" 
d="M680 1217q-121 0 -207.5 94.5t-103.5 261.5h12q38 -77 122 -120.5t177 -43.5t177 43.5t122 120.5h12q-17 -167 -103.5 -261.5t-207.5 -94.5zM752 881v-17q-58 76 -148 76q-25 0 -44.5 -7.5t-42.5 -33.5t-38 -69.5t-25 -122t-10 -185.5q0 -436 160 -436q82 0 148 72v-13
q-25 -67 -104 -116t-179 -49q-55 0 -105 15t-100 53t-86.5 97.5t-59 156t-22.5 220.5q0 118 22.5 210.5t58.5 150t86 95t100.5 52t105.5 14.5q99 0 178.5 -50t104.5 -113zM813 965q48 0 144.5 20t193.5 59v-1064q0 -226 -145.5 -359t-391.5 -133v12q96 0 147.5 53.5
t51.5 143.5v1268zM532 -512q-68 3 -131 16.5t-120.5 39t-92 69.5t-34.5 100q0 70 52.5 113t129.5 43q73 0 134 -39t85 -98q-68 0 -107.5 -37t-39.5 -86q0 -46 33 -70.5t91 -38.5v-12z" />
    <glyph glyph-name="gcommaaccent.ss01" horiz-adv-x="1316" 
d="M889 1659l2 -6q-178 -99 -178 -258q0 -52 29.5 -85.5t68.5 -33.5q40 0 66 33q0 -90 -58.5 -142.5t-144.5 -52.5q-84 0 -144.5 53t-60.5 144q0 115 118.5 219.5t301.5 128.5zM752 881v-17q-58 76 -148 76q-25 0 -44.5 -7.5t-42.5 -33.5t-38 -69.5t-25 -122t-10 -185.5
q0 -436 160 -436q82 0 148 72v-13q-25 -67 -104 -116t-179 -49q-55 0 -105 15t-100 53t-86.5 97.5t-59 156t-22.5 220.5q0 118 22.5 210.5t58.5 150t86 95t100.5 52t105.5 14.5q99 0 178.5 -50t104.5 -113zM813 965q48 0 144.5 20t193.5 59v-1064q0 -226 -145.5 -359
t-391.5 -133v12q96 0 147.5 53.5t51.5 143.5v1268zM532 -512q-68 3 -131 16.5t-120.5 39t-92 69.5t-34.5 100q0 70 52.5 113t129.5 43q73 0 134 -39t85 -98q-68 0 -107.5 -37t-39.5 -86q0 -46 33 -70.5t91 -38.5v-12z" />
    <glyph glyph-name="gdotaccent.ss01" horiz-adv-x="1316" 
d="M680 1171q-93 0 -151 50t-58 131q0 79 58 128.5t151 49.5t151 -49.5t58 -128.5q0 -81 -58 -131t-151 -50zM752 881v-17q-58 76 -148 76q-25 0 -44.5 -7.5t-42.5 -33.5t-38 -69.5t-25 -122t-10 -185.5q0 -436 160 -436q82 0 148 72v-13q-25 -67 -104 -116t-179 -49
q-55 0 -105 15t-100 53t-86.5 97.5t-59 156t-22.5 220.5q0 118 22.5 210.5t58.5 150t86 95t100.5 52t105.5 14.5q99 0 178.5 -50t104.5 -113zM813 965q48 0 144.5 20t193.5 59v-1064q0 -226 -145.5 -359t-391.5 -133v12q96 0 147.5 53.5t51.5 143.5v1268zM532 -512
q-68 3 -131 16.5t-120.5 39t-92 69.5t-34.5 100q0 70 52.5 113t129.5 43q73 0 134 -39t85 -98q-68 0 -107.5 -37t-39.5 -86q0 -46 33 -70.5t91 -38.5v-12z" />
    <glyph glyph-name="i.ss01" horiz-adv-x="729" 
d="M352 1524q93 0 151 -49.5t58 -128.5q0 -81 -58 -131t-151 -50t-151 50t-58 131q0 79 58 128.5t151 49.5zM524 1044v-856q0 -36 1.5 -56t6.5 -40.5t17 -29.5t31 -9q48 0 102 92h12q-20 -49 -49 -82.5t-65 -51t-72.5 -24.5t-81.5 -7q-66 0 -111 13t-70.5 32.5t-38.5 56.5
t-16.5 71.5t-3.5 90.5v600q0 58 -34 83t-119 25l2 13q295 0 489 79z" />
    <glyph glyph-name="dotlessi.ss01" horiz-adv-x="729" 
d="M524 1044v-856q0 -36 1.5 -56t6.5 -40.5t17 -29.5t31 -9q48 0 102 92h12q-20 -49 -49 -82.5t-65 -51t-72.5 -24.5t-81.5 -7q-66 0 -111 13t-70.5 32.5t-38.5 56.5t-16.5 71.5t-3.5 90.5v600q0 58 -34 83t-119 25l2 13q295 0 489 79z" />
    <glyph glyph-name="iacute.ss01" horiz-adv-x="733" 
d="M145 1118l-4 10q79 96 141 221.5t95 252.5l215 -123q-143 -244 -447 -361zM524 1044v-856q0 -36 1.5 -56t6.5 -40.5t17 -29.5t31 -9q48 0 102 92h12q-20 -49 -49 -82.5t-65 -51t-72.5 -24.5t-81.5 -7q-66 0 -111 13t-70.5 32.5t-38.5 56.5t-16.5 71.5t-3.5 90.5v600
q0 58 -34 83t-119 25l2 13q295 0 489 79z" />
    <glyph glyph-name="icircumflex.ss01" horiz-adv-x="733" 
d="M399 1571q120 -243 359 -418l-6 -12q-106 18 -209.5 63.5t-180.5 112.5q-148 -129 -389 -176l-6 12q241 177 359 418h73zM580 53q48 0 102 92h12q-20 -49 -49 -82.5t-65 -51t-72.5 -24.5t-81.5 -7q-66 0 -111 13t-70.5 32.5t-38.5 56.5t-16.5 71.5t-3.5 90.5v600
q0 58 -34 83t-119 25l2 13q295 0 489 79v-856q0 -36 1.5 -56t6.5 -40.5t17 -29.5t31 -9z" />
    <glyph glyph-name="idieresis.ss01" horiz-adv-x="733" 
d="M98 1186q-77 0 -126.5 46t-49.5 120q0 68 49 111.5t125 43.5q79 0 129.5 -43t50.5 -112q0 -74 -50.5 -120t-127.5 -46zM637 1186q-77 0 -126.5 46t-49.5 120q0 69 49.5 112t126.5 43t125.5 -43t48.5 -112q0 -75 -48.5 -120.5t-125.5 -45.5zM524 1044v-856q0 -36 1.5 -56
t6.5 -40.5t17 -29.5t31 -9q48 0 102 92h12q-20 -49 -49 -82.5t-65 -51t-72.5 -24.5t-81.5 -7q-66 0 -111 13t-70.5 32.5t-38.5 56.5t-16.5 71.5t-3.5 90.5v600q0 58 -34 83t-119 25l2 13q295 0 489 79z" />
    <glyph glyph-name="i.loclTRK.ss01" horiz-adv-x="733" 
d="M367 1171q-93 0 -151 50t-58 131q0 79 58 128.5t151 49.5q92 0 150 -49.5t58 -128.5q0 -81 -57.5 -131t-150.5 -50zM524 1044v-856q0 -36 1.5 -56t6.5 -40.5t17 -29.5t31 -9q48 0 102 92h12q-20 -49 -49 -82.5t-65 -51t-72.5 -24.5t-81.5 -7q-66 0 -111 13t-70.5 32.5
t-38.5 56.5t-16.5 71.5t-3.5 90.5v600q0 58 -34 83t-119 25l2 13q295 0 489 79z" />
    <glyph glyph-name="igrave.ss01" horiz-adv-x="733" 
d="M588 1118q-304 117 -447 361l215 123q33 -127 95 -252.5t141 -221.5zM524 1044v-856q0 -36 1.5 -56t6.5 -40.5t17 -29.5t31 -9q48 0 102 92h12q-20 -49 -49 -82.5t-65 -51t-72.5 -24.5t-81.5 -7q-66 0 -111 13t-70.5 32.5t-38.5 56.5t-16.5 71.5t-3.5 90.5v600
q0 58 -34 83t-119 25l2 13q295 0 489 79z" />
    <glyph glyph-name="imacron.ss01" horiz-adv-x="733" 
d="M41 1393h649v-72h-649v72zM524 1044v-856q0 -36 1.5 -56t6.5 -40.5t17 -29.5t31 -9q48 0 102 92h12q-20 -49 -49 -82.5t-65 -51t-72.5 -24.5t-81.5 -7q-66 0 -111 13t-70.5 32.5t-38.5 56.5t-16.5 71.5t-3.5 90.5v600q0 58 -34 83t-119 25l2 13q295 0 489 79z" />
    <glyph glyph-name="iogonek.ss01" horiz-adv-x="733" 
d="M367 1171q-93 0 -151 50t-58 131q0 79 58 128.5t151 49.5q92 0 150 -49.5t58 -128.5q0 -81 -57.5 -131t-150.5 -50zM594 20q-89 -66 -128.5 -126.5t-39.5 -124.5q0 -52 29.5 -85.5t68.5 -33.5q40 0 66 33q0 -90 -58.5 -142.5t-144.5 -52.5q-84 0 -144.5 53t-60.5 144
q0 85 69 163t191 132h-16q-66 0 -111 13t-70.5 32.5t-38.5 56.5t-16.5 71.5t-3.5 90.5v600q0 58 -34 83t-119 25l2 13q295 0 489 79v-856q0 -36 1.5 -56t6.5 -40.5t17 -29.5t31 -9q48 0 102 92h12q-35 -85 -100 -125z" />
    <glyph glyph-name="itilde.ss01" horiz-adv-x="733" 
d="M41 1186q-25 22 -41 60t-16 79q0 76 48.5 125t151.5 49q70 0 155 -28.5t161.5 -56.5t124.5 -28q42 0 64 18t22 48q0 27 -33 66h12q25 -22 41.5 -60t16.5 -74q0 -77 -48 -128.5t-153 -51.5q-56 0 -122 17.5t-116 39t-107 39t-96 17.5q-42 0 -64 -18t-22 -48q0 -26 33 -65
h-12zM524 1044v-856q0 -36 1.5 -56t6.5 -40.5t17 -29.5t31 -9q48 0 102 92h12q-20 -49 -49 -82.5t-65 -51t-72.5 -24.5t-81.5 -7q-66 0 -111 13t-70.5 32.5t-38.5 56.5t-16.5 71.5t-3.5 90.5v600q0 58 -34 83t-119 25l2 13q295 0 489 79z" />
    <glyph glyph-name="k.ss01" horiz-adv-x="1392" 
d="M530 139q0 -129 156 -129l2 -10h-649l-2 10q88 0 121.5 32.5t31.5 78.5v1186q0 63 -35.5 86.5t-117.5 23.5l8 8q293 0 485 80v-1366zM1413 145h12q-8 -75 -77 -120t-181 -45q-118 0 -211.5 52.5t-164.5 176.5l-156 262q114 59 176.5 136t62.5 153q0 63 -37 96t-87 33
q-90 0 -146 -96v16q56 108 149 174t191 66q99 0 164.5 -61.5t65.5 -158.5q0 -189 -267 -282l193 -271q77 -109 130.5 -166t86.5 -57q36 0 61.5 24t34.5 68z" />
    <glyph glyph-name="kcommaaccent.ss01" horiz-adv-x="1392" 
d="M686 10l2 -10h-649l-2 10q88 0 121.5 32.5t31.5 78.5v1186q0 63 -35.5 86.5t-117.5 23.5l8 8q293 0 485 80v-1366q0 -129 156 -129zM1413 145h12q-8 -75 -77 -120t-181 -45q-118 0 -211.5 52.5t-164.5 176.5l-156 262q114 59 176.5 136t62.5 153q0 63 -37 96t-87 33
q-90 0 -146 -96v16q56 108 149 174t191 66q99 0 164.5 -61.5t65.5 -158.5q0 -189 -267 -282l193 -271q77 -109 130.5 -166t86.5 -57q36 0 61.5 24t34.5 68zM702 -90q84 0 144.5 -53t60.5 -144q0 -115 -118.5 -219.5t-301.5 -128.5l-2 6q179 100 179 258q0 52 -30 85.5
t-69 33.5t-65 -33q0 90 58 142.5t144 52.5z" />
    <glyph glyph-name="l.ss01" horiz-adv-x="706" 
d="M397 0q-62 0 -106 15t-67.5 37.5t-37 59.5t-17 69t-3.5 77v1073q0 57 -34.5 83t-119.5 26v12q295 0 492 80l2 -1374q0 -37 15 -60.5t40 -23.5q45 0 101 92h12q-38 -94 -107 -130t-170 -36z" />
    <glyph glyph-name="lacute.ss01" horiz-adv-x="706" 
d="M76 1577v10q100 71 191.5 177.5t156.5 220.5l176 -175q-200 -200 -524 -233zM397 0q-62 0 -106 15t-67.5 37.5t-37 59.5t-17 69t-3.5 77v1073q0 57 -34.5 83t-119.5 26v12q295 0 492 80l2 -1374q0 -37 15 -60.5t40 -23.5q45 0 101 92h12q-38 -94 -107 -130t-170 -36z" />
    <glyph glyph-name="lcaron.ss01" horiz-adv-x="706" 
d="M637 1047h-12q67 212 67 561h207q-8 -169 -75 -315t-187 -246zM397 0q-62 0 -106 15t-67.5 37.5t-37 59.5t-17 69t-3.5 77v1073q0 57 -34.5 83t-119.5 26v12q295 0 492 80l2 -1374q0 -37 15 -60.5t40 -23.5q45 0 101 92h12q-38 -94 -107 -130t-170 -36z" />
    <glyph glyph-name="lcommaaccent.ss01" horiz-adv-x="706" 
d="M397 0q-62 0 -106 15t-67.5 37.5t-37 59.5t-17 69t-3.5 77v1073q0 57 -34.5 83t-119.5 26v12q295 0 492 80l2 -1374q0 -37 15 -60.5t40 -23.5q45 0 101 92h12q-38 -94 -107 -130t-170 -36zM135 -635l-2 6q178 99 178 258q0 52 -29.5 85.5t-68.5 33.5q-40 0 -66 -33
q0 90 58.5 142.5t144.5 52.5q84 0 144.5 -53t60.5 -144q0 -115 -118.5 -219.5t-301.5 -128.5z" />
    <glyph glyph-name="ldot.ss01" horiz-adv-x="1075" 
d="M397 0q-62 0 -106 15t-67.5 37.5t-37 59.5t-17 69t-3.5 77v1073q0 57 -34.5 83t-119.5 26v12q295 0 492 80l2 -1374q0 -37 15 -60.5t40 -23.5q45 0 101 92h12q-38 -94 -107 -130t-170 -36zM885 459q-77 0 -126.5 46t-49.5 120q0 68 49 111.5t125 43.5q79 0 129.5 -43
t50.5 -112q0 -74 -50.5 -120t-127.5 -46z" />
    <glyph glyph-name="lslash.ss01" horiz-adv-x="706" 
d="M662 166h12q-38 -94 -107 -130t-170 -36q-62 0 -106 15t-67.5 37.5t-37 59.5t-17 69t-3.5 77v330l-141 -94v49l141 94v694q0 57 -34.5 83t-119.5 26v12q295 0 492 80v-668l158 105v-49l-156 -105v-657q0 -37 15 -60.5t40 -23.5q45 0 101 92z" />
    <glyph glyph-name="m.ss01" horiz-adv-x="2056" 
d="M541 1044v-927q0 -105 153 -105v-12h-645v12q84 0 119 30t35 75v727q0 57 -33.5 82.5t-118.5 25.5v13q296 0 490 79zM903 1044q144 0 225.5 -70.5t81.5 -217.5v-639q0 -105 152 -105v-12h-633v12q83 0 118.5 30t35.5 75v639q0 174 -144 174q-41 0 -77 -18t-58 -44v13
q38 70 115.5 116.5t183.5 46.5zM1550 238v518q0 174 -143 174q-41 0 -77 -18t-58 -44v13q38 70 115.5 116.5t183.5 46.5q144 0 225.5 -70.5t81.5 -217.5v-619q0 -37 14.5 -60.5t36.5 -23.5q21 0 48.5 24t52.5 68h12q-38 -94 -105 -129.5t-165 -35.5q-59 0 -101.5 15
t-65.5 37.5t-36 59.5t-16 69t-3 77z" />
    <glyph glyph-name="n.ss01" horiz-adv-x="1425" 
d="M49 0v12q84 0 119 30t35 75v727q0 57 -33.5 82.5t-118.5 25.5v13q298 0 492 79v-927q0 -105 153 -105v-12h-647zM1116 -20q-62 0 -105.5 15.5t-67 37.5t-37 59t-16.5 68.5t-3 77.5v518q0 84 -38.5 129t-100.5 45q-81 0 -142 -64v13q44 69 127.5 117t175.5 48
q146 0 233 -71t87 -217l-2 -619q0 -37 15 -60.5t40 -23.5q46 0 102 92h13q-40 -94 -109.5 -129.5t-171.5 -35.5z" />
    <glyph glyph-name="nacute.ss01" horiz-adv-x="1425" 
d="M492 1118l-5 10q79 96 141 221.5t95 252.5l215 -123q-143 -245 -446 -361zM49 0v12q84 0 119 30t35 75v727q0 57 -33.5 82.5t-118.5 25.5v13q298 0 492 79v-927q0 -105 153 -105v-12h-647zM1116 -20q-62 0 -105.5 15.5t-67 37.5t-37 59t-16.5 68.5t-3 77.5v518
q0 84 -38.5 129t-100.5 45q-81 0 -142 -64v13q44 69 127.5 117t175.5 48q146 0 233 -71t87 -217l-2 -619q0 -37 15 -60.5t40 -23.5q46 0 102 92h13q-40 -94 -109.5 -129.5t-171.5 -35.5z" />
    <glyph glyph-name="napostrophe.ss01" horiz-adv-x="1425" 
d="M141 1505q70 0 118 -47.5t48 -130.5q0 -93 -91.5 -196t-240.5 -164l-6 18q49 39 83 93t34 106q0 66 -39 99.5t-100 35.5q12 90 63 138t131 48zM49 0v12q84 0 119 30t35 75v727q0 57 -33.5 82.5t-118.5 25.5v13q298 0 492 79v-927q0 -105 153 -105v-12h-647zM1116 -20
q-62 0 -105.5 15.5t-67 37.5t-37 59t-16.5 68.5t-3 77.5v518q0 84 -38.5 129t-100.5 45q-81 0 -142 -64v13q44 69 127.5 117t175.5 48q146 0 233 -71t87 -217l-2 -619q0 -37 15 -60.5t40 -23.5q46 0 102 92h13q-40 -94 -109.5 -129.5t-171.5 -35.5z" />
    <glyph glyph-name="ncaron.ss01" horiz-adv-x="1425" 
d="M676 1155q-118 241 -359 418l7 12q241 -47 389 -176q77 67 180 112.5t209 63.5l6 -12q-238 -174 -358 -418h-74zM543 117q0 -105 153 -105v-12h-647v12q84 0 119 30t35 75v727q0 57 -33.5 82.5t-118.5 25.5v13q298 0 492 79v-927zM1384 145h13q-40 -94 -109.5 -129.5
t-171.5 -35.5q-62 0 -105.5 15.5t-67 37.5t-37 59t-16.5 68.5t-3 77.5v518q0 84 -38.5 129t-100.5 45q-81 0 -142 -64v13q44 69 127.5 117t175.5 48q146 0 233 -71t87 -217l-2 -619q0 -37 15 -60.5t40 -23.5q46 0 102 92z" />
    <glyph glyph-name="ncommaaccent.ss01" horiz-adv-x="1425" 
d="M49 0v12q84 0 119 30t35 75v727q0 57 -33.5 82.5t-118.5 25.5v13q298 0 492 79v-927q0 -105 153 -105v-12h-647zM1116 -20q-62 0 -105.5 15.5t-67 37.5t-37 59t-16.5 68.5t-3 77.5v518q0 84 -38.5 129t-100.5 45q-81 0 -142 -64v13q44 69 127.5 117t175.5 48
q146 0 233 -71t87 -217l-2 -619q0 -37 15 -60.5t40 -23.5q46 0 102 92h13q-40 -94 -109.5 -129.5t-171.5 -35.5zM504 -635l-2 6q178 99 178 258q0 52 -29.5 85.5t-68.5 33.5q-40 0 -66 -33q0 90 58.5 142.5t144.5 52.5q84 0 144.5 -53t60.5 -144q0 -115 -118.5 -219.5
t-301.5 -128.5z" />
    <glyph glyph-name="ntilde.ss01" horiz-adv-x="1425" 
d="M387 1186q-25 22 -41 60t-16 79q0 76 48.5 125t151.5 49q70 0 155 -28.5t161.5 -56.5t124.5 -28q42 0 64 18t22 48q0 27 -33 66h12q25 -22 41.5 -60t16.5 -74q0 -77 -48 -128.5t-153 -51.5q-56 0 -122 17.5t-116 39t-106.5 39t-95.5 17.5q-42 0 -64 -18t-22 -48
q0 -27 32 -65h-12zM49 0v12q84 0 119 30t35 75v727q0 57 -33.5 82.5t-118.5 25.5v13q298 0 492 79v-927q0 -105 153 -105v-12h-647zM1116 -20q-62 0 -105.5 15.5t-67 37.5t-37 59t-16.5 68.5t-3 77.5v518q0 84 -38.5 129t-100.5 45q-81 0 -142 -64v13q44 69 127.5 117
t175.5 48q146 0 233 -71t87 -217l-2 -619q0 -37 15 -60.5t40 -23.5q46 0 102 92h13q-40 -94 -109.5 -129.5t-171.5 -35.5z" />
    <glyph glyph-name="u.ss01" horiz-adv-x="1413" 
d="M518 1044v-776q0 -88 34.5 -131t109.5 -43q86 0 153 64v-13q-45 -72 -130 -118.5t-202 -46.5q-144 0 -223.5 70.5t-79.5 217.5v576q0 57 -33 82.5t-118 25.5v13q295 0 489 79zM1214 1044v-907q0 -84 56 -84q51 0 98 92h12q-24 -82 -98 -123.5t-180 -41.5t-165.5 54.5
t-57.5 145.5l-2 664q0 57 -33 82.5t-117 25.5v13q142 0 250.5 17.5t236.5 61.5z" />
    <glyph glyph-name="uacute.ss01" horiz-adv-x="1413" 
d="M485 1118l-4 10q79 96 141 221.5t95 252.5l215 -123q-143 -244 -447 -361zM518 1044v-776q0 -88 34.5 -131t109.5 -43q86 0 153 64v-13q-45 -72 -130 -118.5t-202 -46.5q-144 0 -223.5 70.5t-79.5 217.5v576q0 57 -33 82.5t-118 25.5v13q295 0 489 79zM1214 1044v-907
q0 -84 56 -84q51 0 98 92h12q-24 -82 -98 -123.5t-180 -41.5t-165.5 54.5t-57.5 145.5l-2 664q0 57 -33 82.5t-117 25.5v13q142 0 250.5 17.5t236.5 61.5z" />
    <glyph glyph-name="ucircumflex.ss01" horiz-adv-x="1413" 
d="M702 1317q-148 -129 -389 -176l-6 12q241 177 359 418h73q120 -243 359 -418l-6 -12q-106 18 -209.5 63.5t-180.5 112.5zM518 268q0 -88 34.5 -131t109.5 -43q86 0 153 64v-13q-45 -72 -130 -118.5t-202 -46.5q-144 0 -223.5 70.5t-79.5 217.5v576q0 57 -33 82.5
t-118 25.5v13q295 0 489 79v-776zM1368 145h12q-24 -82 -98 -123.5t-180 -41.5t-165.5 54.5t-57.5 145.5l-2 664q0 57 -33 82.5t-117 25.5v13q142 0 250.5 17.5t236.5 61.5v-907q0 -84 56 -84q51 0 98 92z" />
    <glyph glyph-name="udieresis.ss01" horiz-adv-x="1413" 
d="M438 1186q-77 0 -126.5 46t-49.5 120q0 68 49 111.5t125 43.5q79 0 129.5 -43t50.5 -112q0 -74 -50.5 -120t-127.5 -46zM977 1186q-77 0 -126.5 46t-49.5 120q0 69 49.5 112t126.5 43t125.5 -43t48.5 -112q0 -75 -48.5 -120.5t-125.5 -45.5zM518 1044v-776
q0 -88 34.5 -131t109.5 -43q86 0 153 64v-13q-45 -72 -130 -118.5t-202 -46.5q-144 0 -223.5 70.5t-79.5 217.5v576q0 57 -33 82.5t-118 25.5v13q295 0 489 79zM1214 1044v-907q0 -84 56 -84q51 0 98 92h12q-24 -82 -98 -123.5t-180 -41.5t-165.5 54.5t-57.5 145.5l-2 664
q0 57 -33 82.5t-117 25.5v13q142 0 250.5 17.5t236.5 61.5z" />
    <glyph glyph-name="ugrave.ss01" horiz-adv-x="1413" 
d="M928 1118q-304 117 -447 361l215 123q33 -127 95 -252.5t141 -221.5zM518 1044v-776q0 -88 34.5 -131t109.5 -43q86 0 153 64v-13q-45 -72 -130 -118.5t-202 -46.5q-144 0 -223.5 70.5t-79.5 217.5v576q0 57 -33 82.5t-118 25.5v13q295 0 489 79zM1214 1044v-907
q0 -84 56 -84q51 0 98 92h12q-24 -82 -98 -123.5t-180 -41.5t-165.5 54.5t-57.5 145.5l-2 664q0 57 -33 82.5t-117 25.5v13q142 0 250.5 17.5t236.5 61.5z" />
    <glyph glyph-name="uhungarumlaut.ss01" horiz-adv-x="1413" 
d="M332 1120l-8 10q149 207 235 469l180 -92q-74 -120 -180.5 -221t-226.5 -166zM680 1120l-8 10q149 207 235 469l180 -92q-74 -120 -180.5 -221t-226.5 -166zM518 1044v-776q0 -88 34.5 -131t109.5 -43q86 0 153 64v-13q-45 -72 -130 -118.5t-202 -46.5
q-144 0 -223.5 70.5t-79.5 217.5v576q0 57 -33 82.5t-118 25.5v13q295 0 489 79zM1214 1044v-907q0 -84 56 -84q51 0 98 92h12q-24 -82 -98 -123.5t-180 -41.5t-165.5 54.5t-57.5 145.5l-2 664q0 57 -33 82.5t-117 25.5v13q142 0 250.5 17.5t236.5 61.5z" />
    <glyph glyph-name="umacron.ss01" horiz-adv-x="1413" 
d="M381 1393h649v-72h-649v72zM518 1044v-776q0 -88 34.5 -131t109.5 -43q86 0 153 64v-13q-45 -72 -130 -118.5t-202 -46.5q-144 0 -223.5 70.5t-79.5 217.5v576q0 57 -33 82.5t-118 25.5v13q295 0 489 79zM1214 1044v-907q0 -84 56 -84q51 0 98 92h12q-24 -82 -98 -123.5
t-180 -41.5t-165.5 54.5t-57.5 145.5l-2 664q0 57 -33 82.5t-117 25.5v13q142 0 250.5 17.5t236.5 61.5z" />
    <glyph glyph-name="uogonek.ss01" horiz-adv-x="1413" 
d="M518 268q0 -88 34.5 -131t109.5 -43q86 0 153 64v-13q-45 -72 -130 -118.5t-202 -46.5q-144 0 -223.5 70.5t-79.5 217.5v576q0 57 -33 82.5t-118 25.5v13q295 0 489 79v-776zM1380 145q-20 -74 -90 -118q-94 -67 -136 -129.5t-42 -128.5q0 -52 29.5 -85.5t68.5 -33.5
q40 0 66 33q0 -90 -58.5 -142.5t-144.5 -52.5q-84 0 -144.5 53t-60.5 144q0 85 69.5 163t192.5 132h-28q-106 0 -165.5 54.5t-57.5 145.5l-2 664q0 57 -33 82.5t-117 25.5v13q142 0 250.5 17.5t236.5 61.5v-907q0 -84 56 -84q51 0 98 92h12z" />
    <glyph glyph-name="uring.ss01" horiz-adv-x="1413" 
d="M707 1141q-88 0 -149.5 60.5t-61.5 148.5t61.5 148.5t149.5 60.5t149.5 -60.5t61.5 -148.5t-61.5 -148.5t-149.5 -60.5zM707 1227q51 0 85.5 35.5t34.5 87.5q0 54 -34.5 89.5t-85.5 35.5t-86 -35.5t-35 -89.5q0 -52 35 -87.5t86 -35.5zM518 1044v-776q0 -88 34.5 -131
t109.5 -43q86 0 153 64v-13q-45 -72 -130 -118.5t-202 -46.5q-144 0 -223.5 70.5t-79.5 217.5v576q0 57 -33 82.5t-118 25.5v13q295 0 489 79zM1214 1044v-907q0 -84 56 -84q51 0 98 92h12q-24 -82 -98 -123.5t-180 -41.5t-165.5 54.5t-57.5 145.5l-2 664q0 57 -33 82.5
t-117 25.5v13q142 0 250.5 17.5t236.5 61.5z" />
    <glyph glyph-name="utilde.ss01" horiz-adv-x="1413" 
d="M381 1186q-25 22 -41 60t-16 79q0 76 48.5 125t151.5 49q70 0 155 -28.5t161.5 -56.5t124.5 -28q42 0 64 18t22 48q0 27 -33 66h12q25 -22 41 -59.5t16 -74.5q0 -78 -48 -129t-152 -51q-56 0 -122 17.5t-116 39t-107 39t-96 17.5q-42 0 -64 -18t-22 -48q0 -26 33 -65h-12
zM518 1044v-776q0 -88 34.5 -131t109.5 -43q86 0 153 64v-13q-45 -72 -130 -118.5t-202 -46.5q-144 0 -223.5 70.5t-79.5 217.5v576q0 57 -33 82.5t-118 25.5v13q295 0 489 79zM1214 1044v-907q0 -84 56 -84q51 0 98 92h12q-24 -82 -98 -123.5t-180 -41.5t-165.5 54.5
t-57.5 145.5l-2 664q0 57 -33 82.5t-117 25.5v13q142 0 250.5 17.5t236.5 61.5z" />
    <glyph glyph-name="v.ss01" horiz-adv-x="1136" 
d="M582 0l-447 879q-25 51 -63 51q-46 0 -82 -64l-2 21q29 66 103 111.5t165 45.5q77 0 142 -36.5t104 -116.5l268 -559l-176 -332h-12zM862 512l-14 18q47 94 47 211q0 142 -98 142q-35 0 -62 -4q1 74 48.5 119.5t119.5 45.5q69 0 105 -35.5t36 -97.5q0 -41 -24 -102
t-52.5 -113t-88.5 -155q-11 -19 -17 -29z" />
    <glyph glyph-name="w.ss01" horiz-adv-x="1814" 
d="M258 1044q82 0 146 -38t98 -111l268 -561l-176 -334h-12l-447 883q-25 51 -63 51q-46 0 -82 -64l-2 21q26 64 101 108.5t169 44.5zM930 1044q82 0 146 -38t98 -111l268 -561l-176 -334h-13l-321 635q-31 -64 -62 -119l-14 19q37 76 49 151l-98 197q-26 51 -62 51
q-50 0 -83 -64l-3 21q26 64 101.5 108.5t169.5 44.5zM1579 1044q69 0 105 -35.5t36 -97.5q0 -41 -24 -102t-52.5 -113t-88.5 -155q-11 -19 -17 -29l-14 18q47 94 47 211q0 142 -98 142q-35 0 -62 -4q1 74 48.5 119.5t119.5 45.5z" />
    <glyph glyph-name="wacute.ss01" horiz-adv-x="1814" 
d="M1145 1479q-143 -244 -447 -361l-4 10q79 96 141 221.5t95 252.5zM258 1044q82 0 146 -38t98 -111l268 -561l-176 -334h-12l-447 883q-25 51 -63 51q-46 0 -82 -64l-2 21q26 64 101 108.5t169 44.5zM930 1044q82 0 146 -38t98 -111l268 -561l-176 -334h-13l-321 635
q-31 -64 -62 -119l-14 19q37 76 49 151l-98 197q-26 51 -62 51q-50 0 -83 -64l-3 21q26 64 101.5 108.5t169.5 44.5zM1579 1044q69 0 105 -35.5t36 -97.5q0 -41 -24 -102t-52.5 -113t-88.5 -155q-11 -19 -17 -29l-14 18q47 94 47 211q0 142 -98 142q-35 0 -62 -4
q1 74 48.5 119.5t119.5 45.5z" />
    <glyph glyph-name="wcircumflex.ss01" horiz-adv-x="1814" 
d="M915 1317q-148 -129 -389 -176l-6 12q241 177 359 418h73q120 -243 359 -418l-6 -12q-106 18 -209.5 63.5t-180.5 112.5zM258 1044q82 0 146 -38t98 -111l268 -561l-176 -334h-12l-447 883q-25 51 -63 51q-46 0 -82 -64l-2 21q26 64 101 108.5t169 44.5zM930 1044
q82 0 146 -38t98 -111l268 -561l-176 -334h-13l-321 635q-31 -64 -62 -119l-14 19q37 76 49 151l-98 197q-26 51 -62 51q-50 0 -83 -64l-3 21q26 64 101.5 108.5t169.5 44.5zM1579 1044q69 0 105 -35.5t36 -97.5q0 -41 -24 -102t-52.5 -113t-88.5 -155q-11 -19 -17 -29
l-14 18q47 94 47 211q0 142 -98 142q-35 0 -62 -4q1 74 48.5 119.5t119.5 45.5z" />
    <glyph glyph-name="wdieresis.ss01" horiz-adv-x="1814" 
d="M651 1186q-77 0 -126.5 46t-49.5 120q0 68 49 111.5t125 43.5q79 0 129.5 -43t50.5 -112q0 -74 -50.5 -120t-127.5 -46zM1190 1186q-77 0 -126.5 46t-49.5 120q0 69 49.5 112t126.5 43t125.5 -43t48.5 -112q0 -75 -48.5 -120.5t-125.5 -45.5zM258 1044q82 0 146 -38
t98 -111l268 -561l-176 -334h-12l-447 883q-25 51 -63 51q-46 0 -82 -64l-2 21q26 64 101 108.5t169 44.5zM930 1044q82 0 146 -38t98 -111l268 -561l-176 -334h-13l-321 635q-31 -64 -62 -119l-14 19q37 76 49 151l-98 197q-26 51 -62 51q-50 0 -83 -64l-3 21
q26 64 101.5 108.5t169.5 44.5zM1579 1044q69 0 105 -35.5t36 -97.5q0 -41 -24 -102t-52.5 -113t-88.5 -155q-11 -19 -17 -29l-14 18q47 94 47 211q0 142 -98 142q-35 0 -62 -4q1 74 48.5 119.5t119.5 45.5z" />
    <glyph glyph-name="wgrave.ss01" horiz-adv-x="1814" 
d="M1141 1118q-304 117 -447 361l215 123q33 -127 95 -252.5t141 -221.5zM258 1044q82 0 146 -38t98 -111l268 -561l-176 -334h-12l-447 883q-25 51 -63 51q-46 0 -82 -64l-2 21q26 64 101 108.5t169 44.5zM930 1044q82 0 146 -38t98 -111l268 -561l-176 -334h-13l-321 635
q-31 -64 -62 -119l-14 19q37 76 49 151l-98 197q-26 51 -62 51q-50 0 -83 -64l-3 21q26 64 101.5 108.5t169.5 44.5zM1579 1044q69 0 105 -35.5t36 -97.5q0 -41 -24 -102t-52.5 -113t-88.5 -155q-11 -19 -17 -29l-14 18q47 94 47 211q0 142 -98 142q-35 0 -62 -4
q1 74 48.5 119.5t119.5 45.5z" />
    <glyph glyph-name="y.ss01" horiz-adv-x="1155" 
d="M592 -4l-449 883q-25 51 -61 51q-48 0 -84 -64l-2 21q28 65 103.5 111t168.5 46q78 0 143 -37.5t101 -115.5l266 -561l-174 -334h-12zM881 512l-15 18q47 94 47 211q0 142 -98 142q-34 0 -61 -4q1 74 48.5 119.5t119.5 45.5q69 0 105 -35.5t36 -97.5q0 -41 -24 -102
t-52.5 -113t-88.5 -155q-11 -19 -17 -29zM197 -512q-87 0 -145 54.5t-58 138.5q0 75 58 123.5t153 54.5q-8 -32 -8 -56q0 -53 29.5 -85.5t80.5 -32.5q46 0 106.5 53t112.5 139h15q-106 -198 -140 -249q-74 -110 -150 -132q-26 -8 -54 -8z" />
    <glyph glyph-name="yacute.ss01" horiz-adv-x="1155" 
d="M397 1118l-4 10q79 96 141 221.5t95 252.5l215 -123q-143 -244 -447 -361zM592 -4l-449 883q-25 51 -61 51q-48 0 -84 -64l-2 21q28 65 103.5 111t168.5 46q78 0 143 -37.5t101 -115.5l266 -561l-174 -334h-12zM881 512l-15 18q47 94 47 211q0 142 -98 142q-34 0 -61 -4
q1 74 48.5 119.5t119.5 45.5q69 0 105 -35.5t36 -97.5q0 -41 -24 -102t-52.5 -113t-88.5 -155q-11 -19 -17 -29zM197 -512q-87 0 -145 54.5t-58 138.5q0 75 58 123.5t153 54.5q-8 -32 -8 -56q0 -53 29.5 -85.5t80.5 -32.5q46 0 106.5 53t112.5 139h15q-106 -198 -140 -249
q-74 -110 -150 -132q-26 -8 -54 -8z" />
    <glyph glyph-name="ycircumflex.ss01" horiz-adv-x="1155" 
d="M614 1317q-148 -129 -389 -176l-6 12q241 177 359 418h73q120 -243 359 -418l-6 -12q-106 18 -209.5 63.5t-180.5 112.5zM268 1044q78 0 143 -37.5t101 -115.5l266 -561l-174 -334h-12l-449 883q-25 51 -61 51q-48 0 -84 -64l-2 21q28 65 103.5 111t168.5 46zM922 1044
q69 0 105 -35.5t36 -97.5q0 -41 -24 -102t-52.5 -113t-88.5 -155q-11 -19 -17 -29l-15 18q47 94 47 211q0 142 -98 142q-34 0 -61 -4q1 74 48.5 119.5t119.5 45.5zM307 -315q46 0 106.5 53t112.5 139h15q-106 -198 -140 -249q-74 -110 -150 -132q-26 -8 -54 -8
q-87 0 -145 54.5t-58 138.5q0 75 58 123.5t153 54.5q-8 -32 -8 -56q0 -53 29.5 -85.5t80.5 -32.5z" />
    </font>
</defs>
</svg>
